Ergebnis 1 bis 1 von 1

Thema: Das Mädchen, das durch die Zeit sprang (2006) [Ger-Jap-Dub][DTS][DTS-HD MA][Ger-Sub][1080p][Remux][BluRay]-SantaKlaus

Dieser Thread wurde noch nicht bewertet. Bewerte ihn doch, wenn er dir gefällt!
  1. #1
    Kleiner Experte Avatar von SantaKlaus
    Registriert seit
    Feb 2014
    Beiträge
    103
    Punkte
    5.867
    Errungenschaften:
    Hikikomori5000 Erfahrungspunkte

    Das Mädchen, das durch die Zeit sprang (2006) [Ger-Jap-Dub][DTS][DTS-HD MA][Ger-Sub][1080p][Remux][BluRay]-SantaKlaus

    Das Mädchen, das durch die Zeit sprang
    Toki o Kakeru Shoujo
    時をかける少女
    The Girl Who Leapt Through Time






    Kurzbeschreibung:
    Bei einem mysteriösen Zwischenfall in der Schule erlangt die 17-jährige Schülerin Makoto Konno die Fähigkeit, rückwärts durch die Zeit zu „springen“. Sofort fängt sie an, diese Begabung zu nutzen, um ihre Schulnoten zu verbessern oder persönliche Probleme zu beseitigen. Aber schon bald muss sie feststellen, dass es nicht so einfach ist, die Vergangenheit nach den eigenen Vorstellungen und Wünschen zu verändern...


    Format: 16:9
    Auflösung: 1920x1080
    Source: Blu-ray
    Codec: AVC
    Hoster: Share-Online
    Ton:
    Deutsch DTS 5.1
    Deutsch DTS 2.0
    Japanisch DTS-HD MA 5.1
    Japanisch FLAC 2.0 (von PCM)

    Spoiler
    Code:
    Das Mädchen, das durch die Zeit sprang (2006)/Das Mädchen, das durch die Zeit sprang (2006).mkv
    Das Mädchen, das durch die Zeit sprang (2006)/Scenes/BD Menu 1.mkv
    Das Mädchen, das durch die Zeit sprang (2006)/Scenes/BD Menu 2.mkv


    Spoiler
    Code:
    General
    Unique ID                   : 149815823679760468834109738265469936098 (0x70B57A648D18A73B88BC899C5BE261E2)
    Complete name               : Das Mädchen, das durch die Zeit sprang (2006).mkv
    Format                      : Matroska
    Format version              : Version 2
    File size                   : 16.1 GiB
    Duration                    : 1h 38mn
    Overall bit rate mode       : Variable
    Overall bit rate            : 23.4 Mbps
    Movie name                  : TOKIKAKE
    Encoded date                : UTC 2016-03-06 02:11:03
    Writing application         : MakeMKV v1.9.9 win(x64-release)
    Writing library             : libmakemkv v1.9.9 (1.3.3/1.4.4) win(x64-release)
    Original source medium      : Blu-ray
    
    Video
    ID                          : 1
    ID in the original source m : 4113 (0x1011)
    Format                      : AVC
    Format/Info                 : Advanced Video Codec
    Format profile              : [email protected]
    Format settings, CABAC      : Yes
    Format settings, ReFrames   : 4 frames
    Format settings, GOP        : M=3, N=18
    Codec ID                    : V_MPEG4/ISO/AVC
    Duration                    : 1h 38mn
    Bit rate mode               : Constant
    Bit rate                    : 18.6 Mbps
    Nominal bit rate            : 20.0 Mbps
    Width                       : 1 920 pixels
    Height                      : 1 080 pixels
    Display aspect ratio        : 16:9
    Frame rate mode             : Constant
    Frame rate                  : 24.000 fps
    Standard                    : NTSC
    Color space                 : YUV
    Chroma subsampling          : 4:2:0
    Bit depth                   : 8 bits
    Scan type                   : Progressive
    Bits/(Pixel*Frame)          : 0.374
    Stream size                 : 12.8 GiB (79%)
    Language                    : Japanese
    Default                     : Yes
    Forced                      : No
    Color range                 : Limited
    Color primaries             : BT.709
    Transfer characteristics    : BT.709
    Matrix coefficients         : BT.709
    
    Audio #1
    ID                          : 2
    ID in the original source m : 4357 (0x1105)
    Format                      : DTS
    Format/Info                 : Digital Theater Systems
    Mode                        : 16
    Format settings, Endianness : Big
    Codec ID                    : A_DTS
    Duration                    : 1h 38mn
    Bit rate mode               : Constant
    Bit rate                    : 755 Kbps
    Channel(s)                  : 6 channels
    Channel positions           : Front: L C R, Side: L R, LFE
    Sampling rate               : 48.0 KHz
    Frame rate                  : 93.750 fps (512 spf)
    Bit depth                   : 16 bits
    Compression mode            : Lossy
    Stream size                 : 530 MiB (3%)
    Title                       : Surround 5.1
    Language                    : German
    Default                     : Yes
    Forced                      : No
    
    Audio #2
    ID                          : 3
    ID in the original source m : 4356 (0x1104)
    Format                      : DTS
    Format/Info                 : Digital Theater Systems
    Mode                        : 16
    Format settings, Endianness : Big
    Codec ID                    : A_DTS
    Duration                    : 1h 38mn
    Bit rate mode               : Constant
    Bit rate                    : 755 Kbps
    Channel(s)                  : 2 channels
    Channel positions           : Front: L R
    Sampling rate               : 48.0 KHz
    Frame rate                  : 93.750 fps (512 spf)
    Bit depth                   : 16 bits
    Compression mode            : Lossy
    Stream size                 : 530 MiB (3%)
    Title                       : Stereo
    Language                    : German
    Default                     : No
    Forced                      : No
    
    Audio #3
    ID                          : 4
    ID in the original source m : 4353 (0x1101)
    Format                      : DTS
    Format/Info                 : Digital Theater Systems
    Format profile              : MA / Core
    Mode                        : 16
    Format settings, Endianness : Big
    Codec ID                    : A_DTS
    Duration                    : 1h 38mn
    Bit rate mode               : Variable / Constant
    Bit rate                    : 2 764 Kbps / 1 509 Kbps
    Channel(s)                  : 6 channels
    Channel positions           : Front: L C R, Side: L R, LFE
    Sampling rate               : 48.0 KHz
    Frame rate                  : 93.750 fps (512 spf)
    Bit depth                   : 24 bits
    Compression mode            : Lossless / Lossy
    Stream size                 : 1.90 GiB (12%)
    Title                       : Surround 5.1
    Language                    : Japanese
    Default                     : No
    Forced                      : No
    
    Audio #4
    ID                          : 5
    ID in the original source m : 4352 (0x1100)
    Format                      : FLAC
    Format/Info                 : Free Lossless Audio Codec
    Codec ID                    : A_FLAC
    Duration                    : 1h 38mn
    Bit rate mode               : Variable
    Bit rate                    : 513 Kbps
    Channel(s)                  : 2 channels
    Channel positions           : Front: L R
    Sampling rate               : 48.0 KHz
    Frame rate                  : 10.417 fps (4608 spf)
    Bit depth                   : 16 bits
    Stream size                 : 360 MiB (2%)
    Title                       : Stereo
    Writing library             : MakeMKV v1.9.9 win(x64-release)
    Language                    : Japanese
    Default                     : No
    Forced                      : No
    
    Text
    ID                          : 7
    ID in the original source m : 4608 (0x1200)
    Format                      : PGS
    Codec ID                    : S_HDMV/PGS
    Codec ID/Info               : Picture based subtitle format used on BDs/HD-DVDs
    Duration                    : 1h 37mn
    Bit rate                    : 37.0 Kbps
    Count of elements           : 2670
    Stream size                 : 25.7 MiB (0%)
    Language                    : German
    Default                     : No
    Forced                      : No
    
    Menu
    00:00:00.000                : en:Chapter 01
    00:07:41.208                : en:Chapter 02
    00:15:36.250                : en:Chapter 03
    00:24:13.833                : en:Chapter 04
    00:31:33.166                : en:Chapter 05
    00:40:19.041                : en:Chapter 06
    00:49:23.875                : en:Chapter 07
    00:59:19.833                : en:Chapter 08
    01:13:48.625                : en:Chapter 09
    01:19:05.000                : en:Chapter 10
    01:26:40.291                : en:Chapter 11
    01:33:05.708                : en:Chapter 12
    01:38:09.666                : en:Chapter 13



    Geschützter Bereich - Bedanke dich beim Poster, um den Bereich sehen zu können
    Hier erfährst Du wie Du Dich bedanken kannst oder werde jetzt Premium Mitglied ab einer Spende von 5€ und erhalte sofortigen Zugriff auf den Downloadbereich!

  2. 24 Benutzer sagen Danke:

    Androkai (21. March 2016),Atlas (29. March 2016),BlackReaper (17. June 2016),Cloud9019 (15. March 2016),Conopas (14. March 2016),dante-hellsing (Gestern),DarkTerminator (29. July 2016),falkenauge11 (8. July 2016),Frag0042 (10. August 2016),Furuflame (13. July 2016),Haku89 (25. October 2016),ikkyyy (4. September 2016),JCD (10. April 2016),johnny10 (14. March 2016),JOKER357thomas (23. June 2016),jonzen (1. November 2016),KXXXI (19. June 2016),memories88 (28. June 2016),midnighter (27. March 2016),nemo (1. July 2016),Ryota (30. September 2016),ShadowTX (17. September 2016),Yaranaika (17. July 2016),zockerfreund (19. October 2016)

Lesezeichen

Berechtigungen

  • Neue Themen erstellen: Nein
  • Themen beantworten: Nein
  • Anhänge hochladen: Nein
  • Beiträge bearbeiten: Nein
  •  

1 2 3 4 5 6 7 8 9 10 11 12 13 14 15 16 17 18 19 20 21 22 23 24 25 26 27 28 29 30 31 32 33 34 35 36 37 38 39 40 41 42 43 44 45 46 47 48 49 50 51 52 53 54 55 56 57 58 59 60 61 62 63 64 65 66 67 68 69 70 71 72 73 74 75 76 77 78 79 80 81 82 83 84 85 86 87 88 89 90 91 92 93 94 95 96 97 98 99 100 101 102 103 104 105 106 107 108 109 110 111 112 113 114 115 116 117 118 119 120 121 122 123 124 125 126 127 128 129 130 131 132 133 134 135 136 137 138 139 140 141 142 143 144 145 146 147 148 149 150 151 152 153 154 155 156 157 158