Ergebnis 1 bis 1 von 1

Thema: Das Schloss im Himmel 1986 Ger-Jap-Dub Eng-Sub 1080p BluRay MERRY XMAS x264 - STARS

Dieser Thread wurde noch nicht bewertet. Bewerte ihn doch, wenn er dir gefällt!
  1. #1
    Freigeschalteter Otaku Avatar von Primary
    Registriert seit
    Jun 2013
    Beiträge
    24
    Punkte
    3.939
    Errungenschaften:
    1000 ErfahrungspunkteHikikomori

    Das Schloss im Himmel 1986 Ger-Jap-Dub Eng-Sub 1080p BluRay MERRY XMAS x264 - STARS


    Das Schloss im Himmel 1986 German DL 1080p BluRay MERRY XMAS x264 - STARS



    Genre: Abenteuer
    Laufzeit: 124 Minuten
    Sprache/n: Deutsch , Japanisch
    Untertitel: Englisch
    Source: BluRay [1080p]
    Format: mkv [x264]
    Größe: 7.57 GB

    Beschreibung:
    Die Geschichte beruht letztlich auf Jonathan Swifts "Gullivers Reisen", wo der Held Gulliver auch in der fliegenden Stadt Laputa landet.

    Wenn es eine fliegende Stadt gibt, dann fragt man sich natürlich, was sie am Himmel hält. Herr Miyazaki hat in seinem Anime folgende Antwort gegeben: einst existierte eine technisch ungeheuer fortgeschrittene Zivilisation, die unter anderem in der Lage war, aus bestimmten Mineralien blau leuchtende Kristalle zu gewinnen, die die Schwerkraft aufheben können und deshalb Levitationssteine genannt werden.

    Die alte Zivilisation ist längst erloschen, nur noch wenige Legenden erinnern an sie, Märchen im Grunde, an die keiner glaubt, oder jedenfalls fast keiner. Ein paar Menschen gibt es noch, die aus unterschiedlichen Gründen davon überzeugt sind, dass Laputa, die Stadt im Himmel, tatsächlich existiert hat und immer noch existiert. Und dann taucht ein junges Mädchen namens Sheeta auf, das um den Hals einen Levitationsstein trägt...

    nfo:

    Code:
    General
    Format                                   : Matroska
    Format version                           : Version 2
    File size                                : 7.57 GiB
    Duration                                 : 2h 4mn
    Overall bit rate                         : 8 704 Kbps
    Movie name                               : LAPUTA - DAS SCHLOSS IM HIMMEL - 1080P - STARS
    Encoded date                             : UTC 2010-12-23 17:56:44
    Writing application                      : mkvmerge v4.0.0 ('The Stars were mine') gebaut am Jun  6 2010 16:18:42
    Writing library                          : libebml v1.0.0 + libmatroska v1.0.0
    
    Video
    ID                                       : 1
    Format                                   : AVC
    Format/Info                              : Advanced Video Codec
    Format profile                           : [email protected]
    Format settings, CABAC                   : Yes
    Format settings, ReFrames                : 5 frames
    Codec ID                                 : V_MPEG4/ISO/AVC
    Duration                                 : 2h 4mn
    Bit rate                                 : 6 829 Kbps
    Width                                    : 1 920 pixels
    Height                                   : 1 040 pixels
    Display aspect ratio                     : 1.85:1
    Frame rate mode                          : Constant
    Frame rate                               : 23.976 fps
    Color space                              : YUV
    Chroma subsampling                       : 4:2:0
    Bit depth                                : 8 bits
    Scan type                                : Progressive
    Bits/(Pixel*Frame)                       : 0.143
    Stream size                              : 5.94 GiB (78%)
    Title                                    : LAPUTA - DAS SCHLOSS IM HIMMEL - 1080P - STARS
    Writing library                          : x264 core 112 r1834 a51816a
    Encoding settings                        : cabac=1 / ref=5 / deblock=1:0:0 / analyse=0x3:0x133 / me=umh / subme=7 / psy=1 / psy_rd=1.00:0.00 / mixed_ref=1 / me_range=16 / chroma_me=1 / trellis=1 / 8x8dct=1 / cqm=0 / deadzone=21,11 / fast_pskip=0 / chroma_qp_offset=-2 / threads=12 / sliced_threads=0 / nr=0 / decimate=1 / interlaced=0 / constrained_intra=0 / bframes=3 / b_pyramid=2 / b_adapt=1 / b_bias=0 / direct=1 / weightb=1 / open_gop=0 / weightp=1 / keyint=250 / keyint_min=23 / scenecut=40 / intra_refresh=0 / rc_lookahead=40 / rc=crf / mbtree=1 / crf=20.0 / qcomp=0.60 / qpmin=0 / qpmax=51 / qpstep=4 / ip_ratio=1.40 / aq=1:0.00
    Language                                 : Japanese
    Default                                  : Yes
    Forced                                   : Yes
    
    Audio #1
    ID                                       : 2
    Format                                   : AC-3
    Format/Info                              : Audio Coding 3
    Format profile                           : Dolby Digital
    Mode extension                           : CM (complete main)
    Format settings, Endianness              : Big
    Codec ID                                 : A_AC3
    Duration                                 : 2h 4mn
    Bit rate mode                            : Constant
    Bit rate                                 : 192 Kbps
    Channel(s)                               : 2 channels
    Channel positions                        : Front: L R
    Sampling rate                            : 48.0 KHz
    Bit depth                                : 16 bits
    Compression mode                         : Lossy
    Stream size                              : 171 MiB (2%)
    Title                                    : GER - AC3
    Language                                 : German
    Default                                  : Yes
    Forced                                   : Yes
    
    Audio #2
    ID                                       : 3
    Format                                   : DTS
    Format/Info                              : Digital Theater Systems
    Mode                                     : 16
    Format settings, Endianness              : Big
    Codec ID                                 : A_DTS
    Duration                                 : 2h 4mn
    Bit rate mode                            : Constant
    Bit rate                                 : 1 509 Kbps
    Channel(s)                               : 2 channels
    Channel positions                        : Front: L R
    Sampling rate                            : 48.0 KHz
    Bit depth                                : 24 bits
    Compression mode                         : Lossy
    Stream size                              : 1.31 GiB (17%)
    Title                                    : JPN - DTS
    Language                                 : Japanese
    Default                                  : No
    Forced                                   : No
    
    Text #1
    ID                                       : 4
    Format                                   : UTF-8
    Codec ID                                 : S_TEXT/UTF8
    Codec ID/Info                            : UTF-8 Plain Text
    Title                                    : GER - FORCED
    Language                                 : German
    Default                                  : Yes
    Forced                                   : Yes
    
    Text #2
    ID                                       : 5
    Format                                   : UTF-8
    Codec ID                                 : S_TEXT/UTF8
    Codec ID/Info                            : UTF-8 Plain Text
    Title                                    : ENG - SUBS
    Language                                 : English
    Default                                  : No
    Forced                                   : No
    Files der Hoster untereinander kompatibel

    Hoster:


    > DOWNLOAD <
    Geschützter Bereich - Bedanke dich beim Poster, um den Bereich sehen zu können
    Hier erfährst Du wie Du Dich bedanken kannst oder werde jetzt Premium Mitglied ab einer Spende von 5€ und erhalte sofortigen Zugriff auf den Downloadbereich!

    Geändert von Primary (25. May 2014 um 12:12 Uhr)

  2. 49 Benutzer sagen Danke:

    Akio (6. December 2015),andyb90 (12. February 2016),Angel90W (10. February 2016),anime-fan (15. August 2015),anno_nami (8. July 2014),app82_inactive (27. December 2014),Ayaka (26. August 2015),benkra (4. March 2015),Black Lotus (14. December 2014),CengiAz (10. March 2016),darksera (4. August 2014),Deedo320 (9. December 2015),Demolchen (10. July 2015),downloader_1987 (29. May 2014),Farelliser (20. August 2014),FreakyPriest (7. July 2016),gratch_inactive (8. March 2015),Haftiabi Tefflondon (7. September 2016),HerzogZepar (15. September 2014),Hojobert (12. October 2016),icloudmax (16. December 2015),inzsome (29. October 2014),Jisagi (2. January 2016),kadaj93 (18. May 2014),kekkei (2. July 2014),Keldaan (16. May 2014),kilosierra (6. June 2014),Kokujou (26. July 2014),Lautrerbomber (16. May 2014),LB31 (13. August 2014),mateo1234 (13. March 2016),midnighter (25. February 2015),MissKaitouKid (13. May 2015),Mörps (9. July 2014),noizmaker (16. June 2015),Olligatoor (12. March 2015),Paulus (28. June 2014),Ramirez (18. May 2014),rapidraid (1. August 2014),RisingJack (24. June 2016),RX333 (29. July 2014),Sairenji (21. March 2015),shinanhan (31. January 2015),SiiiNaN (26. September 2015),syncity (26. July 2014),TaigaAisaka (28. May 2014),XRA9 (16. May 2014),Zaisen (22. June 2014),Zeroxar (27. August 2015)

Lesezeichen

Berechtigungen

  • Neue Themen erstellen: Nein
  • Themen beantworten: Nein
  • Anhänge hochladen: Nein
  • Beiträge bearbeiten: Nein
  •  

1 2 3 4 5 6 7 8 9 10 11 12 13 14 15 16 17 18 19 20 21 22 23 24 25 26 27 28 29 30 31 32 33 34 35 36 37 38 39 40 41 42 43 44 45 46 47 48 49 50 51 52 53 54 55 56 57 58 59 60 61 62 63 64 65 66 67 68 69 70 71 72 73 74 75 76 77 78 79 80 81 82 83 84 85 86 87 88 89 90 91 92 93 94 95 96 97 98 99 100 101 102 103 104 105 106 107 108 109 110 111 112 113 114 115 116 117 118 119 120 121 122 123 124 125 126 127 128 129 130 131 132 133 134 135 136 137 138 139 140 141 142 143 144 145 146 147 148 149 150 151 152 153 154 155 156 157 158