Ergebnis 1 bis 3 von 3

Thema: Die Chroniken von Erdsee [Ger-Jap-Ita-Dub][Ger-Eng-Jap-Ita-Sub] 2006 German 1080p BluRay AC3 DTS ML x264 - HDC

Dieser Thread wurde noch nicht bewertet. Bewerte ihn doch, wenn er dir gefällt!
  1. #1
    Kleiner Experte Avatar von n3l0S
    Registriert seit
    Nov 2013
    Beiträge
    60
    Punkte
    4.938
    Errungenschaften:
    1000 ErfahrungspunkteHikikomori

    Die Chroniken von Erdsee [Ger-Jap-Ita-Dub][Ger-Eng-Jap-Ita-Sub] 2006 German 1080p BluRay AC3 DTS ML x264 - HDC

    [Links sind nur für registrierte und aktivierte Nutzer sichtbar. Klicke hier um dich zu registrieren.]
    In Erdsee droht eine schreckliche Macht das Gleichgewicht der Welt zu zerstören. Ged, der größte Zauberer Erdsees, macht sich auf den Weg, um das Rätsel der Bedrohung zu lösen und die Welt vor Schrecklichem zu bewahren. Gemeinsam mit Arren, Prinz von Enlad, begibt er sich auf eine ebenso beschwerliche wie abenteuerliche Reise. Ged findet heraus, dass ein Zauberer namens Cob die Tür zwischen den Welten der Lebenden und der Toten geöffnet hat. Dies löste ein Ungleichgewicht der Welt aus - mit unabsehbar katastrophalen Folgen für Erdsee und seine Bewohner. Nun liegt es allein an Arren, unter Einsatz seines Lebens das Gleichgewicht in der Welt wieder herzustellen…

    ⚝⚝

    -----------------------------------------------------
    MEDIAINFO
    Spoiler
    Code:
    General
    Unique ID  : 243217446768774657386641708659523893235 (0xB6F9F9F393B26C33917735453F9EB7F3)
    Complete name  : Gedo.senki.2006.1080p.BluRay.AC3.DTS.ML.x264-HDC.mkv
    Format  : Matroska
    Format version  : Version 2
    File size  : 8.88 GiB
    Duration  : 1h 55mn
    Overall bit rate  : 11.0 Mbps
    Encoded date  : UTC 2011-11-24 19:02:26
    Writing application  : mkvmerge v5.0.0 ('Die Wahre Liebe') built on Sep 25 2011 20:33:49
    Writing library  : libebml v1.2.2 + libmatroska v1.3.0
    Attachment  : Yes / Yes / Yes
    
    Video
    ID  : 1
    Format  : AVC
    Format/Info  : Advanced Video Codec
    Format profile  : [email protected]
    Format settings, CABAC  : Yes
    Format settings, ReFrames  : 4 frames
    Codec ID  : V_MPEG4/ISO/AVC
    Duration  : 1h 55mn
    Bit rate  : 9 579 Kbps
    Width  : 1 920 pixels
    Height  : 1 038 pixels
    Display aspect ratio  : 1.85:1
    Frame rate mode  : Constant
    Frame rate  : 23.976 fps
    Color space  : YUV
    Chroma subsampling  : 4:2:0
    Bit depth  : 8 bits
    Scan type  : Progressive
    Bits/(Pixel*Frame)  : 0.200
    Stream size  : 7.57 GiB (85%)
    Writing library  : x264 core 119 r2106 07efeb4
    Encoding settings  : cabac=1 / ref=4 / deblock=1:-3:-3 / analyse=0x3:0x113 / me=umh / subme=9 / psy=1 / psy_rd=1.00:0.00 / mixed_ref=1 / me_range=32 / chroma_me=1 / trellis=0 / 8x8dct=1 / cqm=0 / deadzone=21,11 / fast_pskip=0 / chroma_qp_offset=-2 / threads=6 / sliced_threads=0 / nr=0 / decimate=0 / interlaced=0 / bluray_compat=0 / constrained_intra=0 / bframes=4 / b_pyramid=2 / b_adapt=2 / b_bias=0 / direct=3 / weightb=1 / open_gop=0 / weightp=2 / keyint=250 / keyint_min=23 / scenecut=40 / intra_refresh=0 / rc_lookahead=80 / rc=2pass / mbtree=1 / bitrate=9579 / ratetol=1.0 / qcomp=0.70 / qpmin=0 / qpmax=69 / qpstep=4 / cplxblur=20.0 / qblur=0.5 / ip_ratio=1.40 / aq=1:1.00
    Language  : English
    Default  : Yes
    Forced  : No
    
    Audio #1
    ID  : 2
    Format  : AC-3
    Format/Info  : Audio Coding 3
    Format profile  : Dolby Digital
    Mode extension  : CM (complete main)
    Format settings, Endianness  : Big
    Codec ID  : A_AC3
    Duration  : 1h 55mn
    Bit rate mode  : Constant
    Bit rate  : 192 Kbps
    Channel count  : 2 channels
    Channel positions  : Front: L R
    Sampling rate  : 48.0 KHz
    Bit depth  : 16 bits
    Compression mode  : Lossy
    Stream size  : 159 MiB (2%)
    Title  : German 2.0 AC3 @  192 kbps
    Language  : German
    Default  : Yes
    Forced  : No
    
    Audio #2
    ID  : 3
    Format  : DTS
    Format/Info  : Digital Theater Systems
    Format profile  : ES
    Mode  : 16
    Format settings, Endianness  : Big
    Codec ID  : A_DTS
    Duration  : 1h 55mn
    Bit rate mode  : Constant
    Bit rate  : 768 Kbps
    Channel count  : 7 channels / 6 channels
    Channel positions  : Front: L C R, Side: L R, Back: C, LFE / Front: L C R, Side: L R, LFE
    Sampling rate  : 48.0 KHz
    Bit depth  : 24 bits
    Compression mode  : Lossy
    Stream size  : 635 MiB (7%)
    Title  : Japanese 6.1 DTS-ES @ 1509 kbps
    Language  : Japanese
    Default  : No
    Forced  : No
    
    Audio #3
    ID  : 4
    Format  : AC-3
    Format/Info  : Audio Coding 3
    Mode extension  : CM (complete main)
    Format settings, Endianness  : Big
    Codec ID  : A_AC3
    Duration  : 1h 55mn
    Bit rate mode  : Constant
    Bit rate  : 448 Kbps
    Channel count  : 6 channels
    Channel positions  : Front: L C R, Side: L R, LFE
    Sampling rate  : 48.0 KHz
    Bit depth  : 16 bits
    Compression mode  : Lossy
    Stream size  : 370 MiB (4%)
    Title  : Italian 5.1 AC3 @ 448 kbps
    Language  : Italian
    Default  : No
    Forced  : No
    
    Text #1
    ID  : 5
    Format  : ASS
    Codec ID  : S_TEXT/ASS
    Codec ID/Info  : Advanced Sub Station Alpha
    Compression mode  : Lossless
    Title  : German forced
    Language  : German
    Default  : Yes
    Forced  : No
    
    Text #2
    ID  : 6
    Format  : VobSub
    Muxing mode  : zlib
    Codec ID  : S_VOBSUB
    Codec ID/Info  : The same subtitle format used on DVDs
    Title  : german
    Language  : German
    Default  : No
    Forced  : No
    
    Text #3
    ID  : 7
    Format  : VobSub
    Muxing mode  : zlib
    Codec ID  : S_VOBSUB
    Codec ID/Info  : The same subtitle format used on DVDs
    Title  : japanese
    Language  : Japanese
    Default  : No
    Forced  : No
    
    Text #4
    ID  : 8
    Format  : VobSub
    Muxing mode  : zlib
    Codec ID  : S_VOBSUB
    Codec ID/Info  : The same subtitle format used on DVDs
    Title  : english
    Language  : English
    Default  : No
    Forced  : No
    
    Text #5
    ID  : 9
    Format  : VobSub
    Muxing mode  : zlib
    Codec ID  : S_VOBSUB
    Codec ID/Info  : The same subtitle format used on DVDs
    Title  : italian
    Language  : Italian
    Default  : No
    Forced  : No
    
    Menu
    00:00:00.000  : :00:00:00.000
    00:06:50.035  : :00:06:50.035
    00:10:15.031  : :00:10:15.031
    00:15:42.567  : :00:15:42.567
    00:20:11.877  : :00:20:11.877
    00:25:22.771  : :00:25:22.771
    00:27:57.384  : :00:27:57.384
    00:31:59.626  : :00:31:59.626
    00:38:54.082  : :00:38:54.082
    00:43:36.822  : :00:43:36.822
    00:46:35.000  : :00:46:35.000
    00:51:17.533  : :00:51:17.533
    00:55:24.363  : :00:55:24.363
    01:04:00.545  : :01:04:00.545
    01:10:13.125  : :01:10:13.125
    01:16:05.811  : :01:16:05.811
    01:19:41.318  : :01:19:41.318
    01:22:15.681  : :01:22:15.681
    01:26:06.828  : :01:26:06.828
    01:29:37.372  : :01:29:37.372
    01:35:41.861  : :01:35:41.861
    01:40:59.387  : :01:40:59.387
    01:44:21.547  : :01:44:21.547
    01:49:08.834  : :01:49:08.834

    NFO
    Spoiler
    Code:
    HHHHHHHHH  HHHHHHHHHDDDDDDDDDDDDD  CCCCCCCCCCCCC
    H:::::::H  H:::::::HD::::::::::::DDD  CCC::::::::::::C
    H:::::::H  H:::::::HD:::::::::::::::DD  CC:::::::::::::::C
    HH::::::H  H::::::HHDDD:::::DDDDD:::::D  C:::::CCCCCCCC::::C
      H:::::H  H:::::H  D:::::D  D:::::D  C:::::C  CCCCCC
      H:::::H  H:::::H  D:::::D  D:::::DC:::::C
      H::::::HHHHH::::::H  D:::::D  D:::::DC:::::C
      H:::::::::::::::::H  D:::::D  D:::::DC:::::C
      H:::::::::::::::::H  D:::::D  D:::::DC:::::C
      H::::::HHHHH::::::H  D:::::D  D:::::DC:::::C
      H:::::H  H:::::H  D:::::D  D:::::DC:::::C
      H:::::H  H:::::H  D:::::D  D:::::D  C:::::C  CCCCCC
    HH::::::H  H::::::HHDDD:::::DDDDD:::::D  C:::::CCCCCCCC::::C
    H:::::::H  H:::::::HD:::::::::::::::DD  CC:::::::::::::::C
    H:::::::H  H:::::::HD::::::::::::DDD  CCC::::::::::::C
    HHHHHHHHH  HHHHHHHHHDDDDDDDDDDDDD  CCCCCCCCCCCCC
    
      --- What else ---
    ------------------------------------------------------------------
    
    
    Proudly presents
    
    
    Gedo.senki.2006.1080p.BluRay.AC3.DTS.ML.x264-HDC
    
    
    Genre.
    Animation | Adventure | Fantasy
    
    
    Tagline.
    Once humans and dragons were one. Then, humans chose land and sea,
    and dragon chose wind and fire. [Japanese release]
    
    
    Plot.
    Something bizarre has come over the land. The kingdom is deteriorating.
    People are beginning to act strange...
    
    
    General Information.
    Release.Name.........: Gedo.senki.2006.1080p.BluRay.AC3.DTS.ML.x264-HDC
    Release.Date ........: 24.11.2011
    RUNTIME..............: 01h:55m:33s
    SIZE.................: 8.9 GB
    VIDEO CODEC..........: x264 [@LVL4.1][DXVA]
    FRAMERATE............: 23.976 fps
    BITRATE..............: 9579 kbps [Source 21593 kbps]
    RESOLUTION...........: 1920x1038
    PRIMARY.AUDIO........: German 2.0 AC3 @ 192 kbps
    SECONDARY.AUDIO.1....: Japanese 6.1 DTS-ES @ 1509 kbps
    SECONDARY.AUDIO.2....: Italian 5.1 AC3 @ 448 kbps
    SUBTITLES............: ger forced [thx TVR], ger, jap, eng, ita
    CHAPTERS.............: Yes like BluRay
    SOURCE...............: Gedo senki 2006 1080p Blu-ray AVC DTS-HD MA 6.1
    IMDB.RATING..........: 6.5/10 6.887 votes
    IMDB.LINK............: http://www.imdb.com/title/tt0495596/
    
    
    
    x264 [info]: frame I:1276  Avg QP: 9.48  size:373699
    x264 [info]: frame P:46633 Avg QP:12.41  size:118330
    x264 [info]: frame B:118310 Avg QP:14.03  size: 19492
    
    x264 [info]: SSIM Mean Y:0.9914305
    
    encoded 166219 frames, 5.40 fps, 9579.00 kb/s

    -----------------------------------------------------

    ⚝⚝

    -----------------------------------------------------
    - | Uploaded | -
    - | Share-Online | -
    - | Zippyshare (für free User) | -

    File size : 8.88 GiB

    !! Lade den kleinen Inhalt (Archiv) !!
    !! Darin befindet sich alles was man zum Download benötigt !!

    -----------------------------------------------------
    kein Danke => nach 30 Tagen DOWN
    - !!! - Bitte Bedanken - !!! -


    ⚝⚝⚝⚝
    Geschützter Bereich - Bedanke dich beim Poster, um den Bereich sehen zu können
    Hier erfährst Du wie Du Dich bedanken kannst oder werde jetzt Premium Mitglied ab einer Spende von 5€ und erhalte sofortigen Zugriff auf den Downloadbereich!

    ⚝⚝⚝⚝


    - !!! - Bitte Bedanken - !!! -
    kein Danke => nach 30 Tagen DOWN
    -----------------------------------------------------
    Alternativ-Link wenn DOWN
    Spoiler
    ⚝⚝⚝⚝
    Geschützter Bereich - Bedanke dich beim Poster, um den Bereich sehen zu können
    Hier erfährst Du wie Du Dich bedanken kannst oder werde jetzt Premium Mitglied ab einer Spende von 5€ und erhalte sofortigen Zugriff auf den Downloadbereich!

    ⚝⚝⚝⚝

    Alternativ-Link wenn DOWN
    -----------------------------------------------------

    ⚝⚝
    Geändert von n3l0S (31. July 2015 um 23:37 Uhr)

  2. 41 Benutzer sagen Danke:

    4myAss (31. October 2014),alecander (26. August 2014),Bhaal_inactive (15. August 2014),Black Lotus (14. December 2014),BlackLotus (4. January 2015),cooliero (15. January 2016),Deedo320 (9. December 2015),Demolchen (10. July 2015),Donquixote (2. October 2014),druage (6. November 2014),eddi992 (2. April 2016),Farelliser (26. September 2014),fellmer (10. June 2016),GiftGasBaer (11. February 2016),Grave Baker (28. February 2015),Guvi (14. August 2014),Haku89 (8. September 2014),Hojobert (15. October 2016),Ibanezar (20. January 2016),icloudmax (16. December 2015),JOKER357thomas (23. June 2016),Jubba (9. August 2015),Kartox (4. November 2014),Kuraiko55 (4. April 2015),Ley0304 (30. September 2015),Lugiano (16. April 2016),Mathonwy (27. May 2016),MD-Krauser (22. August 2014),Metaller777 (28. August 2015),neMesis.be (19. February 2016),Quetzal Coatl (22. August 2014),Raziel (15. August 2014),ReGGiZz (1. April 2015),Sait1991 (13. September 2016),Senseless (3. May 2015),Shana:3 (12. July 2015),skylier (13. September 2014),Tarlysin (29. August 2014),volker027 (23. September 2016),xColdAsIcex (7. May 2015),Zarroc1 (9. October 2016)

  3. #2
    Treues Mitglied Avatar von Sairenji
    Registriert seit
    Aug 2013
    Beiträge
    299
    Punkte
    11.339
    Errungenschaften:
    TomodachisTagger Profi10000 ErfahrungspunkteHikikomori

    Gedo senki 2006 1080p BluRay AC3 DTS ML x264 - HDC





    Gedo.senki.2006.1080p.BluRay.AC3.DTS.ML.x264-HDC

    Ein schrecklicher Schatten liegt über Erdsee, dessen Zukunft auf dem Spiel steht. Drachen fallen über einander her, Menschen werden besessen. Ged, der größte Zauberer des Reiches, zieht fort, um die Rätsel zu lösen und das Gleichgewicht der Welt zu bewahren. Gemeinsam mit Arren, einem jungen Prinzen, der im Wahn seinen Vater tötete und seitdem flieht, bricht er zu einer abenteuerlichen Reise auf. Die Lande sind voller ziellos umherirrender Menschen - das Werk des Zauberers Cob, der die Tür zu den Toten ö

    Titel: Die Chroniken von Erdsee

    Sprache: Deutsch Japanisch Italienisch | Genre: Anime

    Video: BluRay (MKV) | Audio: AC3 2.0

    Infos: [Links sind nur für registrierte und aktivierte Nutzer sichtbar. Klicke hier um dich zu registrieren.] | Trailer: [Links sind nur für registrierte und aktivierte Nutzer sichtbar. Klicke hier um dich zu registrieren.]

    Größe: 9033 MB | Parts: 35

    = | = | = | =

    NFO:
    Spoiler
    Code:
    H:::::::H     H:::::::HD::::::::::::DDD          CCC::::::::::::C
    H:::::::H     H:::::::HD:::::::::::::::DD      CC:::::::::::::::C
    HH::::::H     H::::::HHDDD:::::DDDDD:::::D    C:::::CCCCCCCC::::C
    H:::::H     H:::::H    D:::::D    D:::::D  C:::::C
    H:::::H     H:::::H    D:::::D     D:::::DC:::::C
    H::::::HHHHH::::::H    D:::::D     D:::::DC:::::C
    H:::::::::::::::::H    D:::::D     D:::::DC:::::C
    H:::::::::::::::::H    D:::::D     D:::::DC:::::C
    H::::::HHHHH::::::H    D:::::D     D:::::DC:::::C
    H:::::H     H:::::H    D:::::D     D:::::DC:::::C
    H:::::H     H:::::H    D:::::D    D:::::D  C:::::C
    HH::::::H     H::::::HHDDD:::::DDDDD:::::D    C:::::CCCCCCCC::::C
    H:::::::H     H:::::::HD:::::::::::::::DD      CC:::::::::::::::C
    H:::::::H     H:::::::HD::::::::::::DDD          CCC::::::::::::C
    
    What else
    
    Proudly presents
    
    Gedo.senki.2006.1080p.BluRay.AC3.DTS.ML.x264-HDC
    
    Genre.
    Animation | Adventure | Fantasy
    
    Tagline.
    Once humans and dragons were one. Then, humans chose land and sea,
    and dragon chose wind and fire. [Japanese release]
    
    Plot.
    Something bizarre has come over the land. The kingdom is deteriorating.
    People are beginning to act strange...
    
    General Information.
    Release.Name.........: Gedo.senki.2006.1080p.BluRay.AC3.DTS.ML.x264-HDC
    Release.Date ........: 24.11.2011
    RUNTIME..............: 01h:55m:33s
    SIZE.................: 8.9 GB
    VIDEO CODEC..........: x264 [@LVL4.1][DXVA]
    FRAMERATE............: 23.976 fps
    BITRATE..............: 9579 kbps [Source 21593 kbps]
    RESOLUTION...........: 1920x1038
    PRIMARY.AUDIO........: German 2.0 AC3 @ 192 kbps
    SECONDARY.AUDIO.1....: Japanese 6.1 DTS-ES @ 1509 kbps
    SECONDARY.AUDIO.2....: Italian 5.1 AC3 @ 448 kbps
    SUBTITLES............: ger forced [thx TVR], ger, jap, eng, ita
    CHAPTERS.............: Yes like BluRay
    SOURCE...............: Gedo senki 2006 1080p Blu-ray AVC DTS-HD MA 6.1
    IMDB.RATING..........: 6.5/10 6.887 votes
    IMDB.LINK............: http://www.imdb.com/title/tt0495596/
    
    x264 [info]: frame I:1276  Avg QP: 9.48  size:373699
    x264 [info]: frame P:46633 Avg QP:12.41  size:118330
    x264 [info]: frame B:118310 Avg QP:14.03  size: 19492
    
    x264 [info]: SSIM Mean Y:0.9914305
    
    encoded 166219 frames, 5.40 fps, 9579.00 kb/s


    Geschützter Bereich - Bedanke dich beim Poster, um den Bereich sehen zu können
    Hier erfährst Du wie Du Dich bedanken kannst oder werde jetzt Premium Mitglied ab einer Spende von 5€ und erhalte sofortigen Zugriff auf den Downloadbereich!

    Inaktiver Uploader!

    Alle Re-Upload-Anfragen öffentlich im [Links sind nur für registrierte und aktivierte Nutzer sichtbar. Klicke hier um dich zu registrieren.] posten!

  4. 26 Benutzer sagen Danke:

    4myAss (31. October 2014),animeso12 (28. December 2014),Black Lotus (14. December 2014),BlackLotus (4. January 2015),cooliero (15. January 2016),Donquixote (2. October 2014),eddi992 (2. April 2016),Farelliser (29. September 2014),fellmer (10. June 2016),GiftGasBaer (11. February 2016),Grave Baker (28. February 2015),Haku89 (8. September 2014),Hojobert (15. October 2016),Ibanezar (23. January 2016),Jubba (9. August 2015),kairi2 (31. October 2014),Kartox (4. November 2014),Lugiano (16. April 2016),midnighter (20. December 2014),Miiko_Chan (9. March 2015),neMesis.be (19. February 2016),Paulus (1. September 2014),prodektor (2. January 2015),Sait1991 (13. September 2016),Schwarzer_Wolf (10. March 2015),volker027 (23. September 2016)

  5. #3
    United we Stand Avatar von 00Ryuji00
    Registriert seit
    Oct 2012
    Beiträge
    3.902
    Punkte
    100.019
    Errungenschaften:
    TomodachisGang LeaderHikikomoriTagger Amateur50000 Erfahrungspunkte

    AW: Die Chroniken von Erdsee [Ger-Jap-Ita-Dub][Ger-Eng-Jap-Ita-Sub] 2006 German 1080p BluRay AC3 DTS ML x264 - HDC


    Gedo Senki
    ゲド戦記
    Tales from Earthsea
    Die Chroniken von Erdsee
    Ged Senki
    Record of the Gedo War - Tales from Earthsea
    Tales of Ged






    Kurzbeschreibung:
    Zitat Zitat von AniSearch.com
    Covertext:
    In Erdsee droht eine schreckliche Macht das Gleichgewicht der Welt zu zerstören. Ged, der größte Zauberer Erdsees, macht sich auf den Weg, um das Rätsel der Bedrohung zu lösen und die Welt vor Schrecklichem zu bewahren. Gemeinsam mit Arren, Prinz von Enlad, begibt er sich auf eine ebenso beschwerliche wie abenteuerliche Reise. Ged findet heraus, dass ein Zauberer namens Cob die Tür zwischen den Welten der Lebenden und der Toten geöffnet hat. Dies löste ein Ungleichgewicht der Welt aus - mit unabsehbar katastrophalen Folgen für Erdsee und seine Bewohner. Nun liegt es allein an Arren, unter Einsatz seines Lebens das Gleichgewicht in der Welt wieder herzustellen…


    Spieldauer: 116min
    Genre: Abenteuer
    Nebengenres: Abenteuer, Drama, Familie, Fantasy, Romanze
    Jahr: 2006
    Sprache: Deutsch, Japanisch, Italienisch
    Untertitel: Deutsch, Englisch, Japanisch, Italienisch
    Größe pro Folge: ~8.88 GiB
    Episodenanzahl: 1/1
    Format: MKV
    Auflösung: 1038p (1.85:1)
    Videocodec: x264 (AVC)
    Audiocodec: AC-3, DTS
    Releasegruppe: HDC
    Hoster: Share-Online, Uploaded


    MediaInfo
    Code:
    
    Format                                   : Matroska
    Format version                           : Version 2
    File size                                : 8.88 GiB
    Duration                                 : 1h 55mn
    Overall bit rate                         : 11.0 Mbps
    Encoded date                             : UTC 2011-11-24 19:02:26
    Writing application                      : mkvmerge v5.0.0 ('Die Wahre Liebe') built on Sep 25 2011 20:33:49
    Writing library                          : libebml v1.2.2 + libmatroska v1.3.0
    Attachements                             : ARIALN.TTF / BAARS___.TTF / EPISODE1.TTF
    
    Video
    ID                                       : 1
    Format                                   : AVC
    Format/Info                              : Advanced Video Codec
    Format profile                           : [email protected]
    Format settings, CABAC                   : Yes
    Format settings, ReFrames                : 4 frames
    Codec ID                                 : V_MPEG4/ISO/AVC
    Duration                                 : 1h 55mn
    Bit rate                                 : 9 579 Kbps
    Width                                    : 1 920 pixels
    Height                                   : 1 038 pixels
    Display aspect ratio                     : 1.85:1
    Frame rate mode                          : Constant
    Frame rate                               : 23.976 fps
    Color space                              : YUV
    Chroma subsampling                       : 4:2:0
    Bit depth                                : 8 bits
    Scan type                                : Progressive
    Bits/(Pixel*Frame)                       : 0.200
    Stream size                              : 7.57 GiB (85%)
    Writing library                          : x264 core 119 r2106 07efeb4
    Encoding settings                        : cabac=1 / ref=4 / deblock=1:-3:-3 / analyse=0x3:0x113 / me=umh / subme=9 / psy=1 / psy_rd=1.00:0.00 / mixed_ref=1 / me_range=32 / chroma_me=1 / trellis=0 / 8x8dct=1 / cqm=0 / deadzone=21,11 / fast_pskip=0 / chroma_qp_offset=-2 / threads=6 / sliced_threads=0 / nr=0 / decimate=0 / interlaced=0 / bluray_compat=0 / constrained_intra=0 / bframes=4 / b_pyramid=2 / b_adapt=2 / b_bias=0 / direct=3 / weightb=1 / open_gop=0 / weightp=2 / keyint=250 / keyint_min=23 / scenecut=40 / intra_refresh=0 / rc_lookahead=80 / rc=2pass / mbtree=1 / bitrate=9579 / ratetol=1.0 / qcomp=0.70 / qpmin=0 / qpmax=69 / qpstep=4 / cplxblur=20.0 / qblur=0.5 / ip_ratio=1.40 / aq=1:1.00
    Language                                 : English
    Default                                  : Yes
    Forced                                   : No
    
    Audio #1
    ID                                       : 2
    Format                                   : AC-3
    Format/Info                              : Audio Coding 3
    Format profile                           : Dolby Digital
    Mode extension                           : CM (complete main)
    Format settings, Endianness              : Big
    Codec ID                                 : A_AC3
    Duration                                 : 1h 55mn
    Bit rate mode                            : Constant
    Bit rate                                 : 192 Kbps
    Channel(s)                               : 2 channels
    Channel positions                        : Front: L R
    Sampling rate                            : 48.0 KHz
    Compression mode                         : Lossy
    Stream size                              : 159 MiB (2%)
    Title                                    : German 2.0 AC3 @  192 kbps
    Language                                 : German
    Default                                  : Yes
    Forced                                   : No
    
    Audio #2
    ID                                       : 3
    Format                                   : DTS
    Format/Info                              : Digital Theater Systems
    Format profile                           : ES
    Mode                                     : 16
    Format settings, Endianness              : Big
    Codec ID                                 : A_DTS
    Duration                                 : 1h 55mn
    Bit rate mode                            : Constant
    Bit rate                                 : 768 Kbps
    Channel(s)                               : 7 channels / 6 channels
    Channel positions                        : Front: L C R, Side: L R, Back: C, LFE / Front: L C R, Side: L R, LFE
    Sampling rate                            : 48.0 KHz
    Bit depth                                : 24 bits
    Compression mode                         : Lossy
    Stream size                              : 635 MiB (7%)
    Title                                    : Japanese 6.1 DTS-ES @ 1509 kbps
    Language                                 : Japanese
    Default                                  : No
    Forced                                   : No
    
    Audio #3
    ID                                       : 4
    Format                                   : AC-3
    Format/Info                              : Audio Coding 3
    Mode extension                           : CM (complete main)
    Format settings, Endianness              : Big
    Codec ID                                 : A_AC3
    Duration                                 : 1h 55mn
    Bit rate mode                            : Constant
    Bit rate                                 : 448 Kbps
    Channel(s)                               : 6 channels
    Channel positions                        : Front: L C R, Side: L R, LFE
    Sampling rate                            : 48.0 KHz
    Compression mode                         : Lossy
    Stream size                              : 370 MiB (4%)
    Title                                    : Italian 5.1 AC3 @ 448 kbps
    Language                                 : Italian
    Default                                  : No
    Forced                                   : No
    
    Text #1
    ID                                       : 5
    Format                                   : ASS
    Codec ID                                 : S_TEXT/ASS
    Codec ID/Info                            : Advanced Sub Station Alpha
    Compression mode                         : Lossless
    Title                                    : German forced
    Language                                 : German
    Default                                  : Yes
    Forced                                   : No
    
    Text #2
    ID                                       : 6
    Format                                   : VobSub
    Muxing mode                              : zlib
    Codec ID                                 : S_VOBSUB
    Codec ID/Info                            : Picture based subtitle format used on DVDs
    Title                                    : german
    Language                                 : German
    Default                                  : No
    Forced                                   : No
    
    Text #3
    ID                                       : 7
    Format                                   : VobSub
    Muxing mode                              : zlib
    Codec ID                                 : S_VOBSUB
    Codec ID/Info                            : Picture based subtitle format used on DVDs
    Title                                    : japanese
    Language                                 : Japanese
    Default                                  : No
    Forced                                   : No
    
    Text #4
    ID                                       : 8
    Format                                   : VobSub
    Muxing mode                              : zlib
    Codec ID                                 : S_VOBSUB
    Codec ID/Info                            : Picture based subtitle format used on DVDs
    Title                                    : english
    Language                                 : English
    Default                                  : No
    Forced                                   : No
    
    Text #5
    ID                                       : 9
    Format                                   : VobSub
    Muxing mode                              : zlib
    Codec ID                                 : S_VOBSUB
    Codec ID/Info                            : Picture based subtitle format used on DVDs
    Title                                    : italian
    Language                                 : Italian
    Default                                  : No
    Forced                                   : No
    
    Menu
    00:00:00.000                             : :00:00:00.000
    00:06:50.035                             : :00:06:50.035
    00:10:15.031                             : :00:10:15.031
    00:15:42.567                             : :00:15:42.567
    00:20:11.877                             : :00:20:11.877
    00:25:22.771                             : :00:25:22.771
    00:27:57.384                             : :00:27:57.384
    00:31:59.626                             : :00:31:59.626
    00:38:54.082                             : :00:38:54.082
    00:43:36.822                             : :00:43:36.822
    00:46:35.000                             : :00:46:35.000
    00:51:17.533                             : :00:51:17.533
    00:55:24.363                             : :00:55:24.363
    01:04:00.545                             : :01:04:00.545
    01:10:13.125                             : :01:10:13.125
    01:16:05.811                             : :01:16:05.811
    01:19:41.318                             : :01:19:41.318
    01:22:15.681                             : :01:22:15.681
    01:26:06.828                             : :01:26:06.828
    01:29:37.372                             : :01:29:37.372
    01:35:41.861                             : :01:35:41.861
    01:40:59.387                             : :01:40:59.387
    01:44:21.547                             : :01:44:21.547
    01:49:08.834                             : :01:49:08.834
    
    




    Geschützter Bereich - Bedanke dich beim Poster, um den Bereich sehen zu können
    Hier erfährst Du wie Du Dich bedanken kannst oder werde jetzt Premium Mitglied ab einer Spende von 5€ und erhalte sofortigen Zugriff auf den Downloadbereich!

    [Links sind nur für registrierte und aktivierte Nutzer sichtbar. Klicke hier um dich zu registrieren.]
    !!!Alle Anliegen bezüglich Uploads werden nur mit direktem Threadlink zum Angebot bearbeitet!!!

    Re-Uploadanfragen nur per PN - Ihr könnt mir auch Listen schicken

    Re-Uploads erfolgen meist innerhalb 24h, kann aber auch bis zu 7 Tage dauern

    [Links sind nur für registrierte und aktivierte Nutzer sichtbar. Klicke hier um dich zu registrieren.] | [Links sind nur für registrierte und aktivierte Nutzer sichtbar. Klicke hier um dich zu registrieren.] | >[Links sind nur für registrierte und aktivierte Nutzer sichtbar. Klicke hier um dich zu registrieren.]<
    [Links sind nur für registrierte und aktivierte Nutzer sichtbar. Klicke hier um dich zu registrieren.]

  6. 15 Benutzer sagen Danke:

    0815Reset (3. October 2016),Antipott (6. March 2016),Conopas (22. January 2016),cooliero (15. January 2016),eddi992 (2. April 2016),fellmer (10. June 2016),Hojobert (15. October 2016),Ibanezar (20. January 2016),let_me_in (18. January 2016),Lugiano (16. April 2016),NUVAKWAHU (27. July 2016),Okarin (12. January 2016),Sait1991 (13. September 2016),stellar (17. March 2016),volker027 (23. September 2016)

Lesezeichen

Berechtigungen

  • Neue Themen erstellen: Nein
  • Themen beantworten: Nein
  • Anhänge hochladen: Nein
  • Beiträge bearbeiten: Nein
  •  

1 2 3 4 5 6 7 8 9 10 11 12 13 14 15 16 17 18 19 20 21 22 23 24 25 26 27 28 29 30 31 32 33 34 35 36 37 38 39 40 41 42 43 44 45 46 47 48 49 50 51 52 53 54 55 56 57 58 59 60 61 62 63 64 65 66 67 68 69 70 71 72 73 74 75 76 77 78 79 80 81 82 83 84 85 86 87 88 89 90 91 92 93 94 95 96 97 98 99 100 101 102 103 104 105 106 107 108 109 110 111 112 113 114 115 116 117 118 119 120 121 122 123 124 125 126 127 128 129 130 131 132 133 134 135 136 137 138 139 140 141 142 143 144 145 146 147 148 149 150 151 152 153 154 155 156 157 158