Ergebnis 1 bis 2 von 2

Thema: Die letzten Glühwürmchen [Ger-Jap-Eng-Dub][Ger-Eng-Sub][720p][1080p][BluRay] - Xell

Dieser Thread wurde durchschnittlich mit 5 Sternen bewertet, wobei 1 Stern die schlechteste und 5 Sterne die beste Bewertung ist. Es haben insgesamt 1 Mitglieder eine Bewertung abgegeben.

  1. #1
    Kami-sama Avatar von galudo
    Registriert seit
    Mar 2015
    Beiträge
    1.369
    Punkte
    25.903
    Errungenschaften:
    TomodachisTagger ProfiHyperaktivSenpaiGang Leader

    Die letzten Glühwürmchen [Ger-Jap-Eng-Dub][Ger-Eng-Sub][720p][1080p][BluRay] - Xell

    Hotaru no Haka
    火垂るの墓
    Grave of the Fireflies
    Die letzten Gluehwuermchen



    Kurzbeschreibung
    Es ist das Jahr 1945. Japan wird von amerikanischen Bombern heimgesucht, die das Land zur Kapitulation zwingen sollen. Bomben prasseln vom Himmel und wo sie einschlagen, brennt die Erde. Im Inferno eines solchen Angriffs verlieren der 14-jährige Seita und seine 4-jährige Schwester Setsuko ihre Mutter. Ohne den Vater, der schon lange bei der Marine ist, sind die Kinder auf sich alleine gestellt. Zuerst kommen sie bei Verwandten unter, doch die hungrigen Mäuler sind in der Not des unerbittlichen Krieges nicht willkommen. So ziehen Seita und Setsuko in einen verlassenen Bunker und versuchen auf eigene Faust zu überleben.
    Format: MKV
    Sprache: Deutsch, Japanisch, Englisch
    Untertitel: Deutsch, Englisch
    Genre: Alltagsleben, Drama, Family, Historisch
    Größe bei 1080p: ~ 9400 MB pro Folge
    Größe bei 720p: ~ 4200 MB pro Folge
    Dauer: ~ 90 Minuten
    Jahr: 1988
    Video: 1280 x 696, 1920 x 1040
    Source: BluRay
    Subgroup / Releasegroup: Xell

    Hoster: Share-Online | Uploaded
    Passwort: siehe unten


    Datei-Info
    MediaInfo
    720p
    Code:
    General
    Unique ID                      : 232862601682808144200394843041200174888 (0xAF2FB4AC1704EF0BA4C2ECB1E4E57728)
    Complete name                  : Die.letzten.Gluehwuermchen.1988.German.AC3D.ML.720p.BluRay.x264-Xell.mkv
    Format                         : Matroska
    Format version                 : Version 2
    File size                      : 4.23 GiB
    Duration                       : 1h 28mn
    Overall bit rate               : 6 839 Kbps
    Encoded date                   : UTC 2012-08-02 11:53:00
    Writing application            : mkvmerge v3.4.0 ('Rapunzel') gebaut am May 15 2010 09:38:20
    Writing library                : libebml v0.8.0 + libmatroska v0.9.0
    
    Video
    ID                             : 1
    Format                         : AVC
    Format/Info                    : Advanced Video Codec
    Format profile                 : [email protected]
    Format settings, CABAC         : Yes
    Format settings, ReFrames      : 9 frames
    Codec ID                       : V_MPEG4/ISO/AVC
    Duration                       : 1h 28mn
    Bit rate                       : 6 100 Kbps
    Width                          : 1 280 pixels
    Height                         : 692 pixels
    Display aspect ratio           : 1.85:1
    Frame rate mode                : Constant
    Frame rate                     : 23.976 fps
    Color space                    : YUV
    Chroma subsampling             : 4:2:0
    Bit depth                      : 8 bits
    Scan type                      : Progressive
    Bits/(Pixel*Frame)             : 0.287
    Stream size                    : 3.69 GiB (87%)
    Title                          : 720p Xell
    Writing library                : x264 core 125 r2200 999b753
    Encoding settings              : cabac=1 / ref=9 / deblock=1:-3:-3 / analyse=0x3:0x113 / me=umh / subme=10 / psy=1 / psy_rd=1.15:0.03 / mixed_ref=1 / me_range=32 / chroma_me=1 / trellis=2 / 8x8dct=1 / cqm=0 / deadzone=21,11 / fast_pskip=0 / chroma_qp_offset=-3 / threads=18 / lookahead_threads=3 / sliced_threads=0 / nr=0 / decimate=0 / interlaced=0 / bluray_compat=0 / constrained_intra=0 / bframes=8 / b_pyramid=2 / b_adapt=2 / b_bias=0 / direct=3 / weightb=1 / open_gop=0 / weightp=2 / keyint=240 / keyint_min=24 / scenecut=40 / intra_refresh=0 / rc_lookahead=240 / rc=2pass / mbtree=1 / bitrate=6100 / ratetol=1.0 / qcomp=0.70 / qpmin=0 / qpmax=69 / qpstep=4 / cplxblur=20.0 / qblur=0.5 / ip_ratio=1.30 / aq=1:1.10
    Language                       : German
    Default                        : Yes
    Forced                         : Yes
    
    Audio #1
    ID                             : 2
    Format                         : AC-3
    Format/Info                    : Audio Coding 3
    Mode extension                 : CM (complete main)
    Format settings, Endianness    : Big
    Codec ID                       : A_AC3
    Duration                       : 1h 28mn
    Bit rate mode                  : Constant
    Bit rate                       : 224 Kbps
    Channel(s)                     : 2 channels
    Channel positions              : Front: L R
    Sampling rate                  : 48.0 KHz
    Compression mode               : Lossy
    Stream size                    : 142 MiB (3%)
    Title                          : AC3 2.0
    Language                       : German
    Default                        : Yes
    Forced                         : Yes
    
    Audio #2
    ID                             : 3
    Format                         : AC-3
    Format/Info                    : Audio Coding 3
    Mode extension                 : CM (complete main)
    Format settings, Endianness    : Big
    Codec ID                       : A_AC3
    Duration                       : 1h 28mn
    Bit rate mode                  : Constant
    Bit rate                       : 384 Kbps
    Channel(s)                     : 2 channels
    Channel positions              : Front: L R
    Sampling rate                  : 48.0 KHz
    Compression mode               : Lossy
    Stream size                    : 243 MiB (6%)
    Title                          : AC3 2.0
    Language                       : Japanese
    Default                        : No
    Forced                         : No
    
    Audio #3
    ID                             : 4
    Format                         : AC-3
    Format/Info                    : Audio Coding 3
    Mode extension                 : CM (complete main)
    Format settings, Endianness    : Big
    Codec ID                       : A_AC3
    Duration                       : 1h 28mn
    Bit rate mode                  : Constant
    Bit rate                       : 128 Kbps
    Channel(s)                     : 2 channels
    Channel positions              : Front: L R
    Sampling rate                  : 48.0 KHz
    Compression mode               : Lossy
    Stream size                    : 81.1 MiB (2%)
    Title                          : AC3 2.0
    Language                       : English
    Default                        : No
    Forced                         : No
    
    Text #1
    ID                             : 5
    Format                         : ASS
    Codec ID                       : S_TEXT/ASS
    Codec ID/Info                  : Advanced Sub Station Alpha
    Compression mode               : Lossless
    Title                          : Forced Subs ASS
    Language                       : German
    Default                        : Yes
    Forced                         : Yes
    
    Text #2
    ID                             : 6
    Format                         : ASS
    Codec ID                       : S_TEXT/ASS
    Codec ID/Info                  : Advanced Sub Station Alpha
    Compression mode               : Lossless
    Title                          : Full Subs ASS
    Language                       : German
    Default                        : No
    Forced                         : No
    
    Text #3
    ID                             : 7
    Format                         : VobSub
    Muxing mode                    : zlib
    Codec ID                       : S_VOBSUB
    Codec ID/Info                  : Picture based subtitle format used on DVDs
    Title                          : Full Subs VOBSUB
    Language                       : English
    Default                        : No
    Forced                         : No
    
    Menu
    00:00:00.000                   : en:00:00:00.000
    00:03:27.541                   : en:00:03:27.541
    00:13:24.429                   : en:00:13:24.429
    00:25:54.595                   : en:00:25:54.595
    00:36:15.715                   : en:00:36:15.715
    00:43:36.364                   : en:00:43:36.364
    00:52:10.252                   : en:00:52:10.252
    00:56:29.386                   : en:00:56:29.386
    01:04:10.346                   : en:01:04:10.346
    01:13:30.322                   : en:01:13:30.322
    01:19:35.646                   : en:01:19:35.646
    01:25:33.920                   : en:01:25:33.920
    1080p
    Code:
    General
    Unique ID                      : 177120006488127014459796633067112545748 (0x8540128A6A6523D187B2A2B7B19EBDD4)
    Complete name                  : Die.letzten.Gluehwuermchen.1988.German.AC3D.ML.1080p.BluRay.x264-Xell.mkv
    Format                         : Matroska
    Format version                 : Version 2
    File size                      : 9.42 GiB
    Duration                       : 1h 28mn
    Overall bit rate               : 15.2 Mbps
    Encoded date                   : UTC 2012-08-02 11:50:34
    Writing application            : mkvmerge v3.4.0 ('Rapunzel') gebaut am May 15 2010 09:38:20
    Writing library                : libebml v0.8.0 + libmatroska v0.9.0
    
    Video
    ID                             : 1
    Format                         : AVC
    Format/Info                    : Advanced Video Codec
    Format profile                 : [email protected]
    Format settings, CABAC         : Yes
    Format settings, ReFrames      : 4 frames
    Codec ID                       : V_MPEG4/ISO/AVC
    Duration                       : 1h 28mn
    Bit rate                       : 14.5 Mbps
    Width                          : 1 920 pixels
    Height                         : 1 040 pixels
    Display aspect ratio           : 1.85:1
    Frame rate mode                : Constant
    Frame rate                     : 23.976 fps
    Color space                    : YUV
    Chroma subsampling             : 4:2:0
    Bit depth                      : 8 bits
    Scan type                      : Progressive
    Bits/(Pixel*Frame)             : 0.303
    Stream size                    : 8.78 GiB (93%)
    Title                          : 1080p Xell
    Writing library                : x264 core 125 r2200 999b753
    Encoding settings              : cabac=1 / ref=4 / deblock=1:-3:-3 / analyse=0x3:0x113 / me=umh / subme=11 / psy=1 / psy_rd=1.12:0.03 / mixed_ref=1 / me_range=48 / chroma_me=1 / trellis=2 / 8x8dct=1 / cqm=0 / deadzone=21,11 / fast_pskip=0 / chroma_qp_offset=-3 / threads=18 / lookahead_threads=3 / sliced_threads=0 / nr=0 / decimate=0 / interlaced=0 / bluray_compat=0 / constrained_intra=0 / bframes=8 / b_pyramid=2 / b_adapt=2 / b_bias=0 / direct=3 / weightb=1 / open_gop=0 / weightp=2 / keyint=240 / keyint_min=24 / scenecut=40 / intra_refresh=0 / rc_lookahead=240 / rc=2pass / mbtree=1 / bitrate=14500 / ratetol=1.0 / qcomp=0.70 / qpmin=0 / qpmax=69 / qpstep=4 / cplxblur=20.0 / qblur=0.5 / ip_ratio=1.30 / aq=1:1.10
    Language                       : German
    Default                        : Yes
    Forced                         : Yes
    
    Audio #1
    ID                             : 2
    Format                         : AC-3
    Format/Info                    : Audio Coding 3
    Mode extension                 : CM (complete main)
    Format settings, Endianness    : Big
    Codec ID                       : A_AC3
    Duration                       : 1h 28mn
    Bit rate mode                  : Constant
    Bit rate                       : 224 Kbps
    Channel(s)                     : 2 channels
    Channel positions              : Front: L R
    Sampling rate                  : 48.0 KHz
    Compression mode               : Lossy
    Stream size                    : 142 MiB (1%)
    Title                          : AC3 2.0
    Language                       : German
    Default                        : Yes
    Forced                         : Yes
    
    Audio #2
    ID                             : 3
    Format                         : AC-3
    Format/Info                    : Audio Coding 3
    Mode extension                 : CM (complete main)
    Format settings, Endianness    : Big
    Codec ID                       : A_AC3
    Duration                       : 1h 28mn
    Bit rate mode                  : Constant
    Bit rate                       : 384 Kbps
    Channel(s)                     : 2 channels
    Channel positions              : Front: L R
    Sampling rate                  : 48.0 KHz
    Compression mode               : Lossy
    Stream size                    : 243 MiB (3%)
    Title                          : AC3 2.0
    Language                       : Japanese
    Default                        : No
    Forced                         : No
    
    Audio #3
    ID                             : 4
    Format                         : AC-3
    Format/Info                    : Audio Coding 3
    Mode extension                 : CM (complete main)
    Format settings, Endianness    : Big
    Codec ID                       : A_AC3
    Duration                       : 1h 28mn
    Bit rate mode                  : Constant
    Bit rate                       : 128 Kbps
    Channel(s)                     : 2 channels
    Channel positions              : Front: L R
    Sampling rate                  : 48.0 KHz
    Compression mode               : Lossy
    Stream size                    : 81.1 MiB (1%)
    Title                          : AC3 2.0
    Language                       : English
    Default                        : No
    Forced                         : No
    
    Text #1
    ID                             : 5
    Format                         : ASS
    Codec ID                       : S_TEXT/ASS
    Codec ID/Info                  : Advanced Sub Station Alpha
    Compression mode               : Lossless
    Title                          : Forced Subs ASS
    Language                       : German
    Default                        : Yes
    Forced                         : Yes
    
    Text #2
    ID                             : 6
    Format                         : ASS
    Codec ID                       : S_TEXT/ASS
    Codec ID/Info                  : Advanced Sub Station Alpha
    Compression mode               : Lossless
    Title                          : Full Subs ASS
    Language                       : German
    Default                        : No
    Forced                         : No
    
    Text #3
    ID                             : 7
    Format                         : VobSub
    Muxing mode                    : zlib
    Codec ID                       : S_VOBSUB
    Codec ID/Info                  : Picture based subtitle format used on DVDs
    Title                          : Full Subs VOBSUB
    Language                       : English
    Default                        : No
    Forced                         : No
    
    Menu
    00:00:00.000                   : en:00:00:00.000
    00:03:27.541                   : en:00:03:27.541
    00:13:24.429                   : en:00:13:24.429
    00:25:54.595                   : en:00:25:54.595
    00:36:15.715                   : en:00:36:15.715
    00:43:36.364                   : en:00:43:36.364
    00:52:10.252                   : en:00:52:10.252
    00:56:29.386                   : en:00:56:29.386
    01:04:10.346                   : en:01:04:10.346
    01:13:30.322                   : en:01:13:30.322
    01:19:35.646                   : en:01:19:35.646
    01:25:33.920                   : en:01:25:33.920


    5 parts bei 720p
    10 parts bei 1080p


    || Download & Passwort ||


    Geschützter Bereich - Bedanke dich beim Poster, um den Bereich sehen zu können
    Hier erfährst Du wie Du Dich bedanken kannst oder werde jetzt Premium Mitglied ab einer Spende von 5€ und erhalte sofortigen Zugriff auf den Downloadbereich!
    Geändert von galudo (9. October 2016 um 01:20 Uhr) Grund: Reupp
    SUPPORT UND REUP ANFRAGEN NUR >> [Links sind nur für registrierte und aktivierte Nutzer sichtbar. Klicke hier um dich zu registrieren.] <<
    Bitte IMMER den Thread-Link mitschicken.

  2. 22 Benutzer sagen Danke:

    1Ranger (9. October 2016),Baschti1989 (9. October 2016),Belbo (2. June 2016),BlackWidow (30. October 2016),brunsdumm (9. October 2016),heikobaer (25. March 2016),Holzmodem (5. September 2016),hundekuchen (3. April 2016),Ikari-sama (9. June 2016),Intege (16. October 2016),jonzen (12. April 2016),MasterTroll (28. March 2016),Merkartor (1. October 2016),MrThief (30. March 2016),qwasy (23. October 2016),RisingJack (24. June 2016),Ronae (25. March 2016),Sora (9. October 2016),thomas (9. October 2016),tigerhai (22. April 2016),UndeadBan (8. July 2016),zeldax (14. April 2016)

  3. #2
    Kami-sama Avatar von galudo
    Registriert seit
    Mar 2015
    Beiträge
    1.369
    Punkte
    25.903
    Errungenschaften:
    TomodachisTagger ProfiHyperaktivSenpaiGang Leader

    AW: Die letzten Glühwürmchen [GerJapEngDub][GerEngSub][720p][1080p][Bluray]-Xell

    Update: Dateien auf Wunsch wieder Online
    SUPPORT UND REUP ANFRAGEN NUR >> [Links sind nur für registrierte und aktivierte Nutzer sichtbar. Klicke hier um dich zu registrieren.] <<
    Bitte IMMER den Thread-Link mitschicken.

  4. 1 Benutzer sagt Danke:

    Sora (9. October 2016)

Lesezeichen

Berechtigungen

  • Neue Themen erstellen: Nein
  • Themen beantworten: Nein
  • Anhänge hochladen: Nein
  • Beiträge bearbeiten: Nein
  •  

1 2 3 4 5 6 7 8 9 10 11 12 13 14 15 16 17 18 19 20 21 22 23 24 25 26 27 28 29 30 31 32 33 34 35 36 37 38 39 40 41 42 43 44 45 46 47 48 49 50 51 52 53 54 55 56 57 58 59 60 61 62 63 64 65 66 67 68 69 70 71 72 73 74 75 76 77 78 79 80 81 82 83 84 85 86 87 88 89 90 91 92 93 94 95 96 97 98 99 100 101 102 103 104 105 106 107 108 109 110 111 112 113 114 115 116 117 118 119 120 121 122 123 124 125 126 127 128 129 130 131 132 133 134 135 136 137 138 139 140 141 142 143 144 145 146 147 148 149 150 151 152 153 154 155 156 157 158