Ergebnis 1 bis 1 von 1

Thema: Digimon Adventure tri. 2: Ketsui [Jap-Dub][Ger-Sub][WEBRiP] - Animax

Dieser Thread wurde durchschnittlich mit 5 Sternen bewertet, wobei 1 Stern die schlechteste und 5 Sterne die beste Bewertung ist. Es haben insgesamt 1 Mitglieder eine Bewertung abgegeben.

  1. #1
    Avatar von so1k
    Registriert seit
    Aug 2014
    Beiträge
    316
    Punkte
    4.210
    Errungenschaften:
    1000 ErfahrungspunkteTomodachisHikikomori

    Digimon Adventure tri. 2: Ketsui [Jap-Dub][Ger-Sub][WEBRiP] - Animax


    Digimon Adventure tri. 2: Ketsui [Jap-Dub][Ger-Sub][WEBRiP] - Animax
    デジモンアドベンチャーtri.(トライ)第2章「決意」
    Digimon Tri 2
    Digimon Tri Film 2






    Kurzbeschreibung:
    Zitat Zitat von AniSearch.com
    Die Handlung von Digimon Adventure tri. setzt sechs Jahre nach den Geschehnissen in Digimon und drei Jahre nach den von Digimon 02 ein. Die Welt hat sich verändert und Tai und seine Freunde sind älter geworden. Gemeinsam gehen sie auf die Oberschule – wie ganz normale Teenager. Trotzdem verbergen Tai und seine Freunde ein Geheimnis: Sie sind Digiritter, die sich vor einiger Zeit in die digitale Welt gewagt haben und dort eine Verbindung mit digitalen Monstern eingegangen sind. Jetzt müssen die Jugendlichen gemeinsam mit ihren Partnern, den Digimon, in die fantastische Parallelwelt zurückkehren und diese vor dem Bösen beschützen.

    (Source: wikipedia.de)


    Spieldauer: 97min
    Genre: Abenteuer
    Nebengenres: Abenteuer, Action, Drama, Fantasy, Komödie, Scifi
    Jahr: 2016
    Sprache: Japanisch
    Untertitel: Deutsch
    Größe pro Folge: ~463 MiB
    Episodenanzahl: 1/1
    Format: MP4
    Auflösung: 404p (16:9)
    Videocodec: x264 (AVC)
    Audiocodec: AAC
    Releasegruppe: WEBRiP / Animax
    Hoster: UploadedShare-Online


    MediaInfo

    Code:
    
    Format                                   : MPEG-4
    Format profile                           : Base Media / Version 2
    Codec ID                                 : mp42
    File size                                : 463 MiB
    Duration                                 : 1h 24mn
    Overall bit rate mode                    : Variable
    Overall bit rate                         : 769 Kbps
    Encoded date                             : UTC 2016-03-16 11:40:26
    Tagged date                              : UTC 2016-03-16 11:40:26
    Writing application                      : HandBrake 0.10.5 2016021100
    
    Video
    ID                                       : 1
    Format                                   : AVC
    Format/Info                              : Advanced Video Codec
    Format profile                           : [email protected]
    Format settings, CABAC                   : Yes
    Format settings, ReFrames                : 4 frames
    Codec ID                                 : avc1
    Codec ID/Info                            : Advanced Video Coding
    Duration                                 : 1h 24mn
    Bit rate                                 : 640 Kbps
    Width                                    : 720 pixels
    Height                                   : 404 pixels
    Display aspect ratio                     : 16:9
    Frame rate mode                          : Constant
    Frame rate                               : 25.000 fps
    Color space                              : YUV
    Chroma subsampling                       : 4:2:0
    Bit depth                                : 8 bits
    Scan type                                : Progressive
    Bits/(Pixel*Frame)                       : 0.088
    Stream size                              : 382 MiB (83%)
    Writing library                          : x264 core 142 r2491 24e4fed
    Encoding settings                        : cabac=1 / ref=3 / deblock=1:0:0 / analyse=0x3:0x113 / me=hex / subme=7 / psy=1 / psy_rd=1.00:0.00 / mixed_ref=1 / me_range=16 / chroma_me=1 / trellis=1 / 8x8dct=1 / cqm=0 / deadzone=21,11 / fast_pskip=1 / chroma_qp_offset=-2 / threads=12 / lookahead_threads=2 / sliced_threads=0 / nr=0 / decimate=1 / interlaced=0 / bluray_compat=0 / constrained_intra=0 / bframes=3 / b_pyramid=2 / b_adapt=1 / b_bias=0 / direct=1 / weightb=1 / open_gop=0 / weightp=2 / keyint=250 / keyint_min=25 / scenecut=40 / intra_refresh=0 / rc_lookahead=40 / rc=abr / mbtree=1 / bitrate=640 / ratetol=1.0 / qcomp=0.60 / qpmin=0 / qpmax=69 / qpstep=4 / vbv_maxrate=17500 / vbv_bufsize=17500 / nal_hrd=none / filler=0 / ip_ratio=1.40 / aq=1:1.00
    Encoded date                             : UTC 2016-03-16 11:40:26
    Tagged date                              : UTC 2016-03-16 11:40:26
    Color range                              : Limited
    Color primaries                          : BT.709
    Transfer characteristics                 : BT.709
    Matrix coefficients                      : BT.709
    
    Audio
    ID                                       : 2
    Format                                   : AAC
    Format/Info                              : Advanced Audio Codec
    Format profile                           : LC
    Codec ID                                 : 40
    Duration                                 : 1h 24mn
    Bit rate mode                            : Variable
    Bit rate                                 : 128 Kbps
    Channel(s)                               : 2 channels
    Channel positions                        : Front: L R
    Sampling rate                            : 48.0 KHz
    Compression mode                         : Lossy
    Stream size                              : 77.0 MiB (17%)
    Title                                    : Stereo / Stereo
    Language                                 : English
    Encoded date                             : UTC 2016-03-16 11:40:26
    Tagged date                              : UTC 2016-03-16 11:40:26
    
    





    Geschützter Bereich - Bedanke dich beim Poster, um den Bereich sehen zu können
    Hier erfährst Du wie Du Dich bedanken kannst oder werde jetzt Premium Mitglied ab einer Spende von 5€ und erhalte sofortigen Zugriff auf den Downloadbereich!


    Auf Deutsch und 1080p: [Links sind nur für registrierte und aktivierte Nutzer sichtbar. Klicke hier um dich zu registrieren.]
    In Englisch und 1080p: [Links sind nur für registrierte und aktivierte Nutzer sichtbar. Klicke hier um dich zu registrieren.]

    [Links sind nur für registrierte und aktivierte Nutzer sichtbar. Klicke hier um dich zu registrieren.]
    Geändert von so1k (3. May 2016 um 02:36 Uhr) Grund: Mirror: Share-Online

  2. 18 Benutzer sagen Danke:

    Alaric (1. May 2016),Buttercups (1. May 2016),CKSI (5. June 2016),dreambird1973 (22. May 2016),etter (8. June 2016),foiderbua (30. April 2016),galudo (30. April 2016),Kradus (3. May 2016),MegaKiller (28. May 2016),midnighter (11. August 2016),Near (7. October 2016),Slyer333 (13. July 2016),tokyodrift (4. May 2016),Type-0 (22. May 2016),Vastolord (20. July 2016),Vivere (15. September 2016),Wölfchen (30. April 2016),Zapzerap (30. April 2016)

Lesezeichen

Berechtigungen

  • Neue Themen erstellen: Nein
  • Themen beantworten: Nein
  • Anhänge hochladen: Nein
  • Beiträge bearbeiten: Nein
  •  

1 2 3 4 5 6 7 8 9 10 11 12 13 14 15 16 17 18 19 20 21 22 23 24 25 26 27 28 29 30 31 32 33 34 35 36 37 38 39 40 41 42 43 44 45 46 47 48 49 50 51 52 53 54 55 56 57 58 59 60 61 62 63 64 65 66 67 68 69 70 71 72 73 74 75 76 77 78 79 80 81 82 83 84 85 86 87 88 89 90 91 92 93 94 95 96 97 98 99 100 101 102 103 104 105 106 107 108 109 110 111 112 113 114 115 116 117 118 119 120 121 122 123 124 125 126 127 128 129 130 131 132 133 134 135 136 137 138 139 140 141 142 143 144 145 146 147 148 149 150 151 152 153 154 155 156 157 158