Ergebnis 1 bis 1 von 1

Thema: Digimon Adventure Tri. 3: Kokuhaku [Jap-Dub][Ger-Sub][720p][WebRip] - D-Tube

Dieser Thread wurde noch nicht bewertet. Bewerte ihn doch, wenn er dir gefällt!
  1. #1
    Kami-sama Avatar von galudo
    Registriert seit
    Mar 2015
    Beiträge
    1.371
    Punkte
    26.007
    Errungenschaften:
    TomodachisTagger ProfiHyperaktivSenpaiGang Leader

    Digimon Adventure Tri. 3: Kokuhaku [Jap-Dub][Ger-Sub][720p][WebRip] - D-Tube

    Digimon Adventure Tri.
    デジモンアドベンチャー tri.
    Digimon Adventure Tri




    Kurzbeschreibung:
    Nach einer schockierenden Wende der Ereignisse gelingt es Meikuumon Leomon aufzulösen und im verzerrten Abgrund zu verschwinden. Noch unter Schock stehend, können Tai und die anderen ihr Unwohlsein nicht verstecken. „Wenn Meikuumon infiziert wurde, dann will ich die Ursache dafür herausfinden. Gab es Anzeichen? Wann und wo wurde er infiziert?“ Izzy quält sich mit dem Gedanken, ob es in dieser unvorstellbar düsteren Situation überhaupt Gegenmaßnahmen gibt, die sie ergreifen könnten.
    Hinweis:
    Der dritte Film Kokuhaku ist aufgeteilt in fünf Teile/Folgen.

    Spieldauer: 97min
    Genre: Abenteuer
    Nebengenres: Abenteuer, Action, Drama, Fantasy, Komödie, Scifi
    Jahr: 2016
    Sprache: Japanisch
    Untertitel: Deutsch
    Größe pro Folge: ~917 MiB
    Source: WebRip
    Format: MP4
    Auflösung: 720p (16:9)
    Videocodec: x264 (AVC)
    Audiocodec: AAC
    Subgruppe / Releasegruppe: Digimon-Tube

    Hoster: Share-Online | Uploaded
    Passwort: siehe unten


    MediaInfo
    Code:
    
    Format                                   : MPEG-4
    Format profile                           : Base Media
    Codec ID                                 : isom
    File size                                : 150 MiB
    Duration                                 : 21mn 51s
    Overall bit rate                         : 958 Kbps
    Writing application                      : Lavf54.29.104
    
    Video
    ID                                       : 1
    Format                                   : AVC
    Format/Info                              : Advanced Video Codec
    Format profile                           : [email protected]
    Format settings, CABAC                   : No
    Format settings, ReFrames                : 3 frames
    Codec ID                                 : avc1
    Codec ID/Info                            : Advanced Video Coding
    Duration                                 : 21mn 51s
    Bit rate                                 : 760 Kbps
    Width                                    : 1 280 pixels
    Height                                   : 720 pixels
    Display aspect ratio                     : 16:9
    Frame rate mode                          : Constant
    Frame rate                               : 29.970 fps
    Color space                              : YUV
    Chroma subsampling                       : 4:2:0
    Bit depth                                : 8 bits
    Scan type                                : Progressive
    Bits/(Pixel*Frame)                       : 0.028
    Stream size                              : 119 MiB (79%)
    Writing library                          : x264 core 132
    Encoding settings                        : cabac=0 / ref=3 / deblock=1:0:0 / analyse=0x1:0x111 / me=hex / subme=7 / psy=1 / psy_rd=1.00:0.00 / mixed_ref=1 / me_range=16 / chroma_me=1 / trellis=1 / 8x8dct=0 / cqm=0 / deadzone=21,11 / fast_pskip=1 / chroma_qp_offset=-2 / threads=36 / lookahead_threads=5 / sliced_threads=0 / nr=0 / decimate=1 / interlaced=0 / bluray_compat=0 / constrained_intra=0 / bframes=0 / weightp=0 / keyint=250 / keyint_min=25 / scenecut=40 / intra_refresh=0 / rc_lookahead=40 / rc=crf / mbtree=1 / crf=24.0 / qcomp=0.60 / qpmin=0 / qpmax=50 / qpstep=4 / ip_ratio=1.40 / aq=1:1.00
    
    Audio
    ID                                       : 2
    Format                                   : AAC
    Format/Info                              : Advanced Audio Codec
    Format profile                           : LC
    Codec ID                                 : 40
    Duration                                 : 21mn 51s
    Bit rate mode                            : Constant
    Bit rate                                 : 192 Kbps
    Channel(s)                               : 2 channels
    Channel positions                        : Front: L R
    Sampling rate                            : 44.1 KHz
    Compression mode                         : Lossy
    Stream size                              : 30.0 MiB (20%)
    
    


    Film 3 - Kokuhaku online
    Film aufgeteilt in 5 Teile/Folgen



    || Download & Passwort ||


    Geschützter Bereich - Bedanke dich beim Poster, um den Bereich sehen zu können
    Hier erfährst Du wie Du Dich bedanken kannst oder werde jetzt Premium Mitglied ab einer Spende von 5€ und erhalte sofortigen Zugriff auf den Downloadbereich!
    SUPPORT UND REUP ANFRAGEN NUR >> [Links sind nur für registrierte und aktivierte Nutzer sichtbar. Klicke hier um dich zu registrieren.] <<
    Bitte IMMER den Thread-Link mitschicken.

  2. 28 Benutzer sagen Danke:

    Alaric (16. October 2016),Asgar001 (19. October 2016),Bloodyair (15. October 2016),CKSI (16. October 2016),DJPAUL1990 (22. October 2016),drparnassus (4. November 2016),frankra (15. October 2016),freakwatcher (3. November 2016),goldratte (15. October 2016),Hisamaki (16. October 2016),Kalchi (13. October 2016),KiritoMazayo (14. October 2016),Lautrerbomber (14. October 2016),livia84 (16. October 2016),Loki92 (3. November 2016),Magicmanx (21. October 2016),manninator (19. October 2016),Miiko_Chan (20. November 2016),mikle20 (20. November 2016),neon (16. October 2016),Piox (20. October 2016),Poocky (14. October 2016),SenseiSasone (2. December 2016),Sirius (23. October 2016),Sora (13. October 2016),Tidus18 (4. November 2016),Vastolord (7. November 2016),Xerone (18. October 2016)

Stichworte

Lesezeichen

Berechtigungen

  • Neue Themen erstellen: Nein
  • Themen beantworten: Nein
  • Anhänge hochladen: Nein
  • Beiträge bearbeiten: Nein
  •  

1 2 3 4 5 6 7 8 9 10 11 12 13 14 15 16 17 18 19 20 21 22 23 24 25 26 27 28 29 30 31 32 33 34 35 36 37 38 39 40 41 42 43 44 45 46 47 48 49 50 51 52 53 54 55 56 57 58 59 60 61 62 63 64 65 66 67 68 69 70 71 72 73 74 75 76 77 78 79 80 81 82 83 84 85 86 87 88 89 90 91 92 93 94 95 96 97 98 99 100 101 102 103 104 105 106 107 108 109 110 111 112 113 114 115 116 117 118 119 120 121 122 123 124 125 126 127 128 129 130 131 132 133 134 135 136 137 138 139 140 141 142 143 144 145 146 147 148 149 150 151 152 153 154 155 156 157 158