Ergebnis 1 bis 2 von 2

Thema: Digimon Adventure Tri. [Laufend][Jap-Dub][Ger-Sub][720p/1080p][BluRay]-Waechter

Dieser Thread wurde noch nicht bewertet. Bewerte ihn doch, wenn er dir gefällt!
  1. #1
    United we Stand Avatar von 00Ryuji00
    Registriert seit
    Oct 2012
    Beiträge
    3.902
    Punkte
    99.823
    Errungenschaften:
    TomodachisGang LeaderHikikomoriTagger Amateur50000 Erfahrungspunkte

    Digimon Adventure Tri. [Laufend][Jap-Dub][Ger-Sub][720p/1080p][BluRay]-Waechter


    Digimon Adventure Tri.
    デジモンアドベンチャー tri.
    Digimon Adventure Tri
    Digimon Adventure 3






    Kurzbeschreibung:
    Die Handlung von Digimon Adventure Tri setzt sechs Jahre nach den Geschehnissen in Digimon Adventure ein. Die Welt hat sich verändert und Tai und seine Freunde sind älter geworden. Gemeinsam gehen sie zur Highschool – wie ganz normale Teenager. Trotzdem verbergen Tai und seine Freunde ein Geheimnis: Sie sind Digiritter, die sich vor einiger Zeit in die digitale Welt gewagt haben und dort eine Verbindung mit digitalen Monstern eingegangen sind. Jetzt müssen die Jugendlichen gemeinsam mit ihren Partnern, den Digimon, in die fantastische Parallelwelt zurückkehren und diese vor dem Bösen beschützen.


    Spieldauer: 97min
    Genre: Abenteuer
    Nebengenres: Abenteuer, Action, Drama, Fantasy, Kinder, Komödie, Sci-Fi
    Jahr: 2015
    Sprache: Japanisch
    Untertitel: Deutsch
    Größe pro Folge: ~1.18 GiB ~1.95 GiB
    Episodenanzahl: 2/6
    Format: MP4
    Auflösung: 720p (16:9), 1080p (16:9)
    Videocodec: x264 (AVC)
    Audiocodec: AAC
    Releasegruppe: Waechter
    Hoster: Share-Online, Uploaded

    Note: Untertitel stammen von Animaxx

    MediaInfo
    720p
    Code:
    
    Format                                   : MPEG-4
    Format profile                           : Base Media
    Codec ID                                 : isom
    File size                                : 1.18 GiB
    Duration                                 : 1h 28mn
    Overall bit rate mode                    : Variable
    Overall bit rate                         : 1 899 Kbps
    Encoded date                             : UTC 2015-12-24 11:03:17
    Tagged date                              : UTC 2015-12-24 11:03:17
    
    Video
    ID                                       : 1
    Format                                   : AVC
    Format/Info                              : Advanced Video Codec
    Format profile                           : [email protected]
    Format settings, CABAC                   : Yes
    Format settings, ReFrames                : 4 frames
    Codec ID                                 : avc1
    Codec ID/Info                            : Advanced Video Coding
    Duration                                 : 1h 28mn
    Bit rate                                 : 1 757 Kbps
    Maximum bit rate                         : 70.8 Mbps
    Width                                    : 1 280 pixels
    Height                                   : 720 pixels
    Display aspect ratio                     : 16:9
    Frame rate mode                          : Constant
    Frame rate                               : 23.976 fps
    Color space                              : YUV
    Chroma subsampling                       : 4:2:0
    Bit depth                                : 8 bits
    Scan type                                : Progressive
    Bits/(Pixel*Frame)                       : 0.080
    Stream size                              : 1.09 GiB (93%)
    Writing library                          : x264 core 148 r2638 7599210
    Encoding settings                        : cabac=1 / ref=3 / deblock=1:0:0 / analyse=0x1:0x111 / me=hex / subme=5 / psy=1 / psy_rd=1.00:0.00 / mixed_ref=1 / me_range=16 / chroma_me=1 / trellis=0 / 8x8dct=0 / cqm=0 / deadzone=21,11 / fast_pskip=1 / chroma_qp_offset=0 / threads=6 / lookahead_threads=1 / sliced_threads=0 / nr=0 / decimate=1 / interlaced=0 / bluray_compat=0 / constrained_intra=0 / bframes=3 / b_pyramid=2 / b_adapt=1 / b_bias=0 / direct=2 / weightb=0 / open_gop=0 / weightp=2 / keyint=240 / keyint_min=23 / scenecut=40 / intra_refresh=0 / rc=cqp / mbtree=0 / qp=20 / ip_ratio=1.40 / pb_ratio=1.30 / aq=0
    Encoded date                             : UTC 2015-12-24 10:51:26
    Tagged date                              : UTC 2015-12-24 11:03:48
    
    Audio
    ID                                       : 2
    Format                                   : AAC
    Format/Info                              : Advanced Audio Codec
    Format profile                           : HE-AAC / LC
    Codec ID                                 : 40
    Duration                                 : 1h 28mn
    Bit rate mode                            : Variable
    Bit rate                                 : 139 Kbps
    Maximum bit rate                         : 174 Kbps
    Channel(s)                               : 2 channels
    Channel positions                        : Front: L R
    Sampling rate                            : 48.0 KHz / 24.0 KHz
    Compression mode                         : Lossy
    Stream size                              : 88.2 MiB (7%)
    Language                                 : Japanese
    Encoded date                             : UTC 2015-12-23 19:39:03
    Tagged date                              : UTC 2015-12-24 11:03:48
    
    


    1080p
    Code:
    
    Format                                   : MPEG-4
    Format profile                           : Base Media
    Codec ID                                 : isom
    File size                                : 1.95 GiB
    Duration                                 : 1h 28mn
    Overall bit rate mode                    : Variable
    Overall bit rate                         : 3 139 Kbps
    Encoded date                             : UTC 2015-12-23 20:04:30
    Tagged date                              : UTC 2015-12-23 20:04:30
    
    Video
    ID                                       : 1
    Format                                   : AVC
    Format/Info                              : Advanced Video Codec
    Format profile                           : [email protected]
    Format settings, CABAC                   : Yes
    Format settings, ReFrames                : 4 frames
    Codec ID                                 : avc1
    Codec ID/Info                            : Advanced Video Coding
    Duration                                 : 1h 28mn
    Bit rate                                 : 2 998 Kbps
    Maximum bit rate                         : 122 Mbps
    Width                                    : 1 920 pixels
    Height                                   : 1 080 pixels
    Display aspect ratio                     : 16:9
    Frame rate mode                          : Constant
    Frame rate                               : 23.976 fps
    Color space                              : YUV
    Chroma subsampling                       : 4:2:0
    Bit depth                                : 8 bits
    Scan type                                : Progressive
    Bits/(Pixel*Frame)                       : 0.060
    Stream size                              : 1.86 GiB (95%)
    Writing library                          : x264 core 148 r2638 7599210
    Encoding settings                        : cabac=1 / ref=3 / deblock=1:0:0 / analyse=0x1:0x111 / me=hex / subme=5 / psy=1 / psy_rd=1.00:0.00 / mixed_ref=1 / me_range=16 / chroma_me=1 / trellis=0 / 8x8dct=0 / cqm=0 / deadzone=21,11 / fast_pskip=1 / chroma_qp_offset=0 / threads=6 / lookahead_threads=1 / sliced_threads=0 / nr=0 / decimate=1 / interlaced=0 / bluray_compat=0 / constrained_intra=0 / bframes=3 / b_pyramid=2 / b_adapt=1 / b_bias=0 / direct=2 / weightb=0 / open_gop=0 / weightp=2 / keyint=240 / keyint_min=23 / scenecut=40 / intra_refresh=0 / rc=cqp / mbtree=0 / qp=20 / ip_ratio=1.40 / pb_ratio=1.30 / aq=0
    Encoded date                             : UTC 2015-12-23 18:12:00
    Tagged date                              : UTC 2015-12-23 20:05:41
    
    Audio
    ID                                       : 2
    Format                                   : AAC
    Format/Info                              : Advanced Audio Codec
    Format profile                           : HE-AAC / LC
    Codec ID                                 : 40
    Duration                                 : 1h 28mn
    Bit rate mode                            : Variable
    Bit rate                                 : 139 Kbps
    Maximum bit rate                         : 174 Kbps
    Channel(s)                               : 2 channels
    Channel positions                        : Front: L R
    Sampling rate                            : 48.0 KHz / 24.0 KHz
    Compression mode                         : Lossy
    Stream size                              : 88.2 MiB (4%)
    Language                                 : Japanese
    Encoded date                             : UTC 2015-12-23 19:39:03
    Tagged date                              : UTC 2015-12-23 20:05:41
    
    






    Geschützter Bereich - Bedanke dich beim Poster, um den Bereich sehen zu können
    Hier erfährst Du wie Du Dich bedanken kannst oder werde jetzt Premium Mitglied ab einer Spende von 5€ und erhalte sofortigen Zugriff auf den Downloadbereich!

    [Links sind nur für registrierte und aktivierte Nutzer sichtbar. Klicke hier um dich zu registrieren.]
    !!!Alle Anliegen bezüglich Uploads werden nur mit direktem Threadlink zum Angebot bearbeitet!!!

    Re-Uploadanfragen nur per PN - Ihr könnt mir auch Listen schicken

    Re-Uploads erfolgen meist innerhalb 24h, kann aber auch bis zu 7 Tage dauern

    [Links sind nur für registrierte und aktivierte Nutzer sichtbar. Klicke hier um dich zu registrieren.] | [Links sind nur für registrierte und aktivierte Nutzer sichtbar. Klicke hier um dich zu registrieren.] | >[Links sind nur für registrierte und aktivierte Nutzer sichtbar. Klicke hier um dich zu registrieren.]<
    [Links sind nur für registrierte und aktivierte Nutzer sichtbar. Klicke hier um dich zu registrieren.]

  2. 99 Benutzer sagen Danke:

    Anzeigen

    accmanxx (29. January 2016),Aizen-Sama (24. March 2016),Akan (13. March 2016),AKira_Hidaka (11. January 2016),Alaric (1. May 2016),alucard26 (3. January 2016),Always_Unknown (9. February 2016),Antipott (6. March 2016),Antraxay (5. January 2016),Asgar001 (18. January 2016),babtfoh (13. September 2016),BK-201 (1. May 2016),BlackPhoenix (8. June 2016),Bloodyair (18. August 2016),Bullet91 (16. May 2016),Bunyos (2. January 2016),chewbacka (8. June 2016),chr1570ph3r (17. February 2016),Chrissi89 (18. June 2016),Christian0274 (12. January 2016),Cloud9019 (31. December 2015),Conopas (5. February 2016),darkwarrior (30. December 2015),Darth Affe (30. December 2015),DarthToast (30. December 2015),Dr. Franken Stein (26. January 2016),Drezzo (23. January 2016),Frag0042 (30. December 2015),Fynal (31. December 2015),galudo (30. December 2015),Genshirou (9. January 2016),Goki.Grokus (1. March 2016),Gold_93 (25. January 2016),graythunder (31. March 2016),Haoz (11. January 2016),Hirs_E_Fruit (25. September 2016),Hiruja (20. July 2016),Hixx (25. March 2016),Inowan (6. February 2016),insaine (13. May 2016),Jamaz (1. January 2016),Junkmaster (2. April 2016),Kaldo (3. January 2016),keahnig (9. April 2016),KevGraf94 (27. March 2016),killer7977 (21. March 2016),Kimaliko (6. July 2016),Kitefist (22. March 2016),Kthulhut (14. February 2016),Kuraiko55 (10. January 2016),livia84 (16. October 2016),Loki92 (2. January 2016),Luna89 (11. March 2016),Magicmanx (11. February 2016),manninator (19. October 2016),master551 (6. January 2016),MattDeox (30. September 2016),Meistermagier (21. July 2016),midnighter (30. January 2016),Miiko_Chan (26. July 2016),mikle20 (20. November 2016),Mosh (25. August 2016),MurphCrusher (31. December 2015),Near (6. October 2016),Nesal (2. January 2016),Ninuschkal (3. January 2016),nived (7. February 2016),NLHTeddyNLH (4. April 2016),Okarin (5. January 2016),Poocky (4. May 2016),prinzvegeta (31. December 2015),proof0208 (12. March 2016),re.tischi (24. March 2016),Reiko (5. January 2016),Renxir (2. January 2016),rice4ever (16. April 2016),RuFFy19 (7. October 2016),Schattenmagier (14. March 2016),Scorns (2. January 2016),SenseiSasone (6. October 2016),Shadow7525 (1. January 2016),Shimika (8. January 2016),shokinn (6. January 2016),Sildurias (1. January 2016),so1k (2. May 2016),TastyCrysis (20. February 2016),Tekay (4. February 2016),Tenma90 (31. January 2016),TheTestzilla (4. January 2016),Tidus18 (13. March 2016),tokyodrift (3. April 2016),Type-0 (7. January 2016),Vastolord (2. January 2016),Wingfeaver (20. January 2016),Xisenable (12. March 2016),xSorrowxKingx (13. January 2016),XTIAN (26. June 2016),Zelpik (13. February 2016),zockerboy (24. January 2016)

  3. #2
    Avatar von so1k
    Registriert seit
    Aug 2014
    Beiträge
    316
    Punkte
    4.210
    Errungenschaften:
    1000 ErfahrungspunkteTomodachisHikikomori

    Digimon Adventure Tri. 2: Ketsui [Jap-Dub][Ger-Sub][1080p][BluRay] - Waechter / Animax


    Digimon Adventure tri. 2: Ketsui
    デジモンアドベンチャーtri.(トライ)第2章「決意」
    Digimon Tri 2
    Digimon Tri Film 2





    Kurzbeschreibung:
    Zitat Zitat von AniSearch.com
    Die Handlung von Digimon Adventure tri. setzt sechs Jahre nach den Geschehnissen in Digimon und drei Jahre nach den von Digimon 02 ein. Die Welt hat sich verändert und Tai und seine Freunde sind älter geworden. Gemeinsam gehen sie auf die Oberschule – wie ganz normale Teenager. Trotzdem verbergen Tai und seine Freunde ein Geheimnis: Sie sind Digiritter, die sich vor einiger Zeit in die digitale Welt gewagt haben und dort eine Verbindung mit digitalen Monstern eingegangen sind. Jetzt müssen die Jugendlichen gemeinsam mit ihren Partnern, den Digimon, in die fantastische Parallelwelt zurückkehren und diese vor dem Bösen beschützen.

    (Source: wikipedia.de)

    Spieldauer: 97min
    Genre: Abenteuer
    Nebengenres: Abenteuer, Action, Drama, Fantasy, Komödie, Scifi
    Jahr: 2016
    Sprache: Japanisch
    Untertitel: Deutsch
    Größe: ~1.56 GiB
    Episodenanzahl: 1/1
    Format: MP4
    Auflösung: 1080p (16:9)
    Videocodec: x264 (AVC)
    Audiocodec: AAC
    Releasegruppe: Waechter / Animax
    Hoster: Uploaded, Share-Online


    MediaInfo

    Code:
    
    Format                                   : MPEG-4
    Format profile                           : Base Media
    Codec ID                                 : isom
    File size                                : 1.56 GiB
    Duration                                 : 1h 28mn
    Overall bit rate mode                    : Variable
    Overall bit rate                         : 2 518 Kbps
    Encoded date                             : UTC 2016-06-05 12:30:50
    Tagged date                              : UTC 2016-06-05 12:30:50
    
    Video
    ID                                       : 1
    Format                                   : AVC
    Format/Info                              : Advanced Video Codec
    Format profile                           : [email protected]
    Format settings, CABAC                   : Yes
    Format settings, ReFrames                : 5 frames
    Codec ID                                 : avc1
    Codec ID/Info                            : Advanced Video Coding
    Duration                                 : 1h 28mn
    Source duration                          : 1h 28mn
    Bit rate                                 : 2 270 Kbps
    Maximum bit rate                         : 28.3 Mbps
    Width                                    : 1 920 pixels
    Height                                   : 1 080 pixels
    Display aspect ratio                     : 16:9
    Frame rate mode                          : Constant
    Frame rate                               : 23.976 fps
    Color space                              : YUV
    Chroma subsampling                       : 4:2:0
    Bit depth                                : 8 bits
    Scan type                                : Progressive
    Bits/(Pixel*Frame)                       : 0.046
    Stream size                              : 1.40 GiB (90%)
    Source stream size                       : 1.47 GiB (94%)
    Writing library                          : x264 core 148 r2692 64f4e24
    Encoding settings                        : cabac=1 / ref=5 / deblock=1:0:0 / analyse=0x3:0x113 / me=umh / subme=8 / psy=1 / psy_rd=1.00:0.00 / mixed_ref=1 / me_range=16 / chroma_me=1 / trellis=1 / 8x8dct=1 / cqm=0 / deadzone=21,11 / fast_pskip=1 / chroma_qp_offset=-2 / threads=6 / lookahead_threads=1 / sliced_threads=0 / nr=0 / decimate=1 / interlaced=0 / bluray_compat=0 / constrained_intra=0 / bframes=3 / b_pyramid=2 / b_adapt=2 / b_bias=0 / direct=3 / weightb=1 / open_gop=0 / weightp=2 / keyint=240 / keyint_min=23 / scenecut=40 / intra_refresh=0 / rc=cqp / mbtree=0 / qp=20 / ip_ratio=1.40 / pb_ratio=1.30 / aq=0
    Tagged date                              : UTC 2016-06-05 12:31:38
    
    Audio
    ID                                       : 2
    Format                                   : AAC
    Format/Info                              : Advanced Audio Codec
    Format profile                           : HE-AAC / LC
    Codec ID                                 : 40
    Duration                                 : 1h 28mn
    Source duration                          : 1h 28mn
    Bit rate mode                            : Variable
    Bit rate                                 : 139 Kbps
    Maximum bit rate                         : 149 Kbps
    Channel(s)                               : 2 channels
    Channel positions                        : Front: L R
    Sampling rate                            : 48.0 KHz / 24.0 KHz
    Compression mode                         : Lossy
    Stream size                              : 88.2 MiB (6%)
    Source stream size                       : 88.2 MiB (6%)
    Language                                 : Japanese
    Encoded date                             : UTC 2016-06-05 09:15:47
    Tagged date                              : UTC 2016-06-05 12:31:38
    
    





    Geschützter Bereich - Bedanke dich beim Poster, um den Bereich sehen zu können
    Hier erfährst Du wie Du Dich bedanken kannst oder werde jetzt Premium Mitglied ab einer Spende von 5€ und erhalte sofortigen Zugriff auf den Downloadbereich!


    Weitere Digimon-Filme:
    [Links sind nur für registrierte und aktivierte Nutzer sichtbar. Klicke hier um dich zu registrieren.]
    [Links sind nur für registrierte und aktivierte Nutzer sichtbar. Klicke hier um dich zu registrieren.]

    Andere Sprachen / Qualitäten:
    [Links sind nur für registrierte und aktivierte Nutzer sichtbar. Klicke hier um dich zu registrieren.]
    [Links sind nur für registrierte und aktivierte Nutzer sichtbar. Klicke hier um dich zu registrieren.]
    [Links sind nur für registrierte und aktivierte Nutzer sichtbar. Klicke hier um dich zu registrieren.]

    [Links sind nur für registrierte und aktivierte Nutzer sichtbar. Klicke hier um dich zu registrieren.]
    Geändert von so1k (6. June 2016 um 18:57 Uhr) Grund: Mirror: Share-Online

  4. 12 Benutzer sagen Danke:

    BK-201 (22. November 2016),Bloodyair (19. August 2016),chr1570ph3r (10. June 2016),DJPAUL1990 (15. June 2016),Hirs_E_Fruit (25. September 2016),manninator (19. October 2016),MattDeox (30. September 2016),Poocky (9. July 2016),RuFFy19 (7. October 2016),shokinn (2. July 2016),Tidus18 (4. November 2016),XTIAN (26. June 2016)

Lesezeichen

Berechtigungen

  • Neue Themen erstellen: Nein
  • Themen beantworten: Nein
  • Anhänge hochladen: Nein
  • Beiträge bearbeiten: Nein
  •  

1 2 3 4 5 6 7 8 9 10 11 12 13 14 15 16 17 18 19 20 21 22 23 24 25 26 27 28 29 30 31 32 33 34 35 36 37 38 39 40 41 42 43 44 45 46 47 48 49 50 51 52 53 54 55 56 57 58 59 60 61 62 63 64 65 66 67 68 69 70 71 72 73 74 75 76 77 78 79 80 81 82 83 84 85 86 87 88 89 90 91 92 93 94 95 96 97 98 99 100 101 102 103 104 105 106 107 108 109 110 111 112 113 114 115 116 117 118 119 120 121 122 123 124 125 126 127 128 129 130 131 132 133 134 135 136 137 138 139 140 141 142 143 144 145 146 147 148 149 150 151 152 153 154 155 156 157 158