Ergebnis 1 bis 1 von 1

Thema: Dragon Ball Z: Fukkatsu no F [Jap-Dub][Ger-Sub][1080p][BluRay] - DB-Tube

Dieser Thread wurde noch nicht bewertet. Bewerte ihn doch, wenn er dir gefällt!
  1. #1
    Kami-sama Avatar von galudo
    Registriert seit
    Mar 2015
    Beiträge
    1.371
    Punkte
    26.016
    Errungenschaften:
    TomodachisTagger ProfiHyperaktivSenpaiGang Leader

    Dragon Ball Z: Fukkatsu no F [Jap-Dub][Ger-Sub][1080p][BluRay] - DB-Tube

    Dragon Ball Z: Fukkatsu no F
    Dragon Ball Z: Resurrection "F"
    Dragon Ball Z: Resurrection of "F"
    Dragon Ball Z: Revival of "F"



    Kurzbeschreibung
    An einem friedlichen Tag auf der Erde tauchen plötzlich zwei verbliebene Mitglieder der Freezer Armee auf, mit dem Ziel, Freezer mit den Dragon Balls wiederzubeleben. Folglich gelingt es ihnen und Freezer sinnt auf Rache an den Saiyajins.
    Format: MP4
    Sprache: Japanisch
    Untertitel: Deutsch
    Größe: 1,24 GB
    Dauer: ~ 93 Minuten
    Jahr: 2015
    Video: 1080p
    Source: BluRay
    Subgroup / Releasegroup: Dragonball-Tube
    Hoster: Share-Online| Uploaded
    Passwort: siehe unten


    Datei-Info
    Spoiler
    Code:
    General
    Complete name                  : Dragonball Z Revival of F GER SUB FULL HD by dragonball-tube.mp4
    Format                         : MPEG-4
    Format profile                 : Base Media
    Codec ID                       : isom
    File size                      : 1.22 GiB
    Duration                       : 1h 33mn
    Overall bit rate mode          : Variable
    Overall bit rate               : 1 853 Kbps
    Encoded date                   : UTC 2015-10-17 23:26:47
    Tagged date                    : UTC 2015-10-17 23:26:47
    
    Video
    ID                             : 1
    Format                         : AVC
    Format/Info                    : Advanced Video Codec
    Format profile                 : [email protected]
    Format settings, CABAC         : Yes
    Format settings, ReFrames      : 5 frames
    Codec ID                       : avc1
    Codec ID/Info                  : Advanced Video Coding
    Duration                       : 1h 33mn
    Bit rate                       : 1 429 Kbps
    Maximum bit rate               : 14.9 Mbps
    Width                          : 1 920 pixels
    Height                         : 1 080 pixels
    Display aspect ratio           : 16:9
    Frame rate mode                : Constant
    Frame rate                     : 29.970 fps
    Color space                    : YUV
    Chroma subsampling             : 4:2:0
    Bit depth                      : 8 bits
    Scan type                      : Progressive
    Bits/(Pixel*Frame)             : 0.023
    Stream size                    : 961 MiB (77%)
    Writing library                : x264 core 142 r2431 ac76440
    Encoding settings              : cabac=1 / ref=5 / deblock=1:1:0 / analyse=0x3:0x113 / me=umh / subme=8 / psy=1 / psy_rd=1.00:0.00 / mixed_ref=1 / me_range=16 / chroma_me=1 / trellis=1 / 8x8dct=1 / cqm=0 / deadzone=21,11 / fast_pskip=1 / chroma_qp_offset=-2 / threads=12 / lookahead_threads=2 / sliced_threads=0 / nr=0 / decimate=1 / interlaced=0 / bluray_compat=0 / constrained_intra=0 / bframes=3 / b_pyramid=2 / b_adapt=2 / b_bias=0 / direct=3 / weightb=1 / open_gop=0 / weightp=2 / keyint=288 / keyint_min=28 / scenecut=40 / intra_refresh=0 / rc_lookahead=50 / rc=2pass / mbtree=1 / bitrate=1429 / ratetol=1.0 / qcomp=0.60 / qpmin=10 / qpmax=51 / qpstep=4 / cplxblur=20.0 / qblur=0.5 / ip_ratio=1.40 / aq=1:0.80
    Encoded date                   : UTC 2015-10-17 23:26:47
    Tagged date                    : UTC 2015-10-17 23:26:52
    
    Audio
    ID                             : 2
    Format                         : AAC
    Format/Info                    : Advanced Audio Codec
    Format profile                 : LC
    Codec ID                       : 40
    Duration                       : 1h 33mn
    Bit rate mode                  : Variable
    Bit rate                       : 419 Kbps
    Maximum bit rate               : 508 Kbps
    Channel(s)                     : 6 channels
    Channel positions              : Front: L C R, Side: L R, LFE
    Sampling rate                  : 48.0 KHz
    Compression mode               : Lossy
    Stream size                    : 282 MiB (23%)
    Encoded date                   : UTC 2015-10-17 21:59:56
    Tagged date                    : UTC 2015-10-17 23:26:52
    


    2 Parts
    5.1 Audio


    || Download & Passwort ||


    Geschützter Bereich - Bedanke dich beim Poster, um den Bereich sehen zu können
    Hier erfährst Du wie Du Dich bedanken kannst oder werde jetzt Premium Mitglied ab einer Spende von 5€ und erhalte sofortigen Zugriff auf den Downloadbereich!

    Weiteres von Dragon Ball:
    [Links sind nur für registrierte und aktivierte Nutzer sichtbar. Klicke hier um dich zu registrieren.]
    [Links sind nur für registrierte und aktivierte Nutzer sichtbar. Klicke hier um dich zu registrieren.]
    [Links sind nur für registrierte und aktivierte Nutzer sichtbar. Klicke hier um dich zu registrieren.]
    [Links sind nur für registrierte und aktivierte Nutzer sichtbar. Klicke hier um dich zu registrieren.]
    [Links sind nur für registrierte und aktivierte Nutzer sichtbar. Klicke hier um dich zu registrieren.]
    [Links sind nur für registrierte und aktivierte Nutzer sichtbar. Klicke hier um dich zu registrieren.]
    [Links sind nur für registrierte und aktivierte Nutzer sichtbar. Klicke hier um dich zu registrieren.]
    [Links sind nur für registrierte und aktivierte Nutzer sichtbar. Klicke hier um dich zu registrieren.]

    Geändert von galudo (27. September 2016 um 23:51 Uhr)
    SUPPORT UND REUP ANFRAGEN NUR >> [Links sind nur für registrierte und aktivierte Nutzer sichtbar. Klicke hier um dich zu registrieren.] <<
    Bitte IMMER den Thread-Link mitschicken.

  2. 45 Benutzer sagen Danke:

    A R E S (1. November 2015),Aggy (7. December 2015),AKira_Hidaka (3. April 2016),AlexDerErste (24. September 2016),Angelous (22. October 2015),animeathome (22. October 2015),Besen 48 (14. August 2016),Biyou1995 (22. October 2015),chr1570ph3r (29. November 2015),Das-Ying (17. November 2016),drparnassus (22. October 2015),FengShui (7. November 2015),fexco (6. December 2015),Junkmaster (28. June 2016),Knallk0pp (22. October 2015),Kradus (11. November 2015),madmax916sps (25. October 2015),MasterGT (12. November 2015),Max13493 (29. November 2015),McZeRo (22. November 2015),midnighter (28. October 2015),MrThief (30. October 2015),Nanashi (21. October 2015),nemo (25. October 2015),neon (8. November 2015),Nesal (13. November 2015),NLHTeddyNLH (5. June 2016),OtakuTim (22. October 2015),Reaper1 (21. May 2016),Regi (1. March 2016),resitian (3. November 2015),robbryjo (6. November 2015),samuuil (29. April 2016),so1k (22. November 2015),SONNYxq (27. October 2015),switcherous (1. November 2015),Tidus18 (20. October 2015),tokyodrift (16. November 2015),tugay7 (24. June 2016),VNRG (27. October 2015),warsnail (31. July 2016),xdricixd (31. October 2015),xellos (24. October 2015),Xxchetahx (30. June 2016),_Kazu_ (9. December 2015)

Stichworte

Lesezeichen

Berechtigungen

  • Neue Themen erstellen: Nein
  • Themen beantworten: Nein
  • Anhänge hochladen: Nein
  • Beiträge bearbeiten: Nein
  •  

1 2 3 4 5 6 7 8 9 10 11 12 13 14 15 16 17 18 19 20 21 22 23 24 25 26 27 28 29 30 31 32 33 34 35 36 37 38 39 40 41 42 43 44 45 46 47 48 49 50 51 52 53 54 55 56 57 58 59 60 61 62 63 64 65 66 67 68 69 70 71 72 73 74 75 76 77 78 79 80 81 82 83 84 85 86 87 88 89 90 91 92 93 94 95 96 97 98 99 100 101 102 103 104 105 106 107 108 109 110 111 112 113 114 115 116 117 118 119 120 121 122 123 124 125 126 127 128 129 130 131 132 133 134 135 136 137 138 139 140 141 142 143 144 145 146 147 148 149 150 151 152 153 154 155 156 157 158