Ergebnis 1 bis 1 von 1

Thema: Dragon Ball Z: Fukkatsu no F [Jap-Dub][Ger-Sub][404p/720p][BluRay] - AnimeJunkies

Dieser Thread wurde noch nicht bewertet. Bewerte ihn doch, wenn er dir gefällt!
  1. #1
    Kami-sama Avatar von galudo
    Registriert seit
    Mar 2015
    Beiträge
    1.371
    Punkte
    26.024
    Errungenschaften:
    TomodachisTagger ProfiHyperaktivSenpaiGang Leader

    Dragon Ball Z: Fukkatsu no F [Jap-Dub][Ger-Sub][404p/720p][BluRay] - AnimeJunkies

    Dragon Ball Z: Fukkatsu no F
    Dragon Ball Z: Resurrection "F"
    Dragon Ball Z: Resurrection of "F"
    Dragon Ball Z: Revival of "F"



    Kurzbeschreibung
    An einem friedlichen Tag auf der Erde tauchen plötzlich zwei verbliebene Mitglieder der Freezer Armee auf, mit dem Ziel, Freezer mit den Dragon Balls wiederzubeleben. Folglich gelingt es ihnen und Freezer sinnt auf Rache an den Saiyajins.
    Format: MP4
    Sprache: Japanisch
    Untertitel: Deutsch
    Größe bei 404p: 1,09 GB
    Größe bei 720p: 2,60 GB
    Dauer: ~ 93 Minuten
    Jahr: 2015
    Video: 404p & 720p
    Source: BluRay
    Subgroup / Releasegroup: AnimeJunkies
    Hoster: Share-Online| Uploaded
    Passwort: siehe unten


    Datei-Info
    MediaInfo
    404p
    Code:
    General
    Complete name                  : Dragon Ball Z Fukkatsu no F.mp4
    Format                         : MPEG-4
    Format profile                 : Base Media / Version 2
    Codec ID                       : mp42
    File size                      : 1.10 GiB
    Duration                       : 1h 33mn
    Overall bit rate mode          : Variable
    Overall bit rate               : 1 676 Kbps
    Writing application            : HandBrake 0.10.0 2014112200
    
    Video
    ID                             : 1
    Format                         : AVC
    Format/Info                    : Advanced Video Codec
    Format profile                 : [email protected]
    Format settings, CABAC         : Yes
    Format settings, ReFrames      : 4 frames
    Codec ID                       : avc1
    Codec ID/Info                  : Advanced Video Coding
    Duration                       : 1h 33mn
    Bit rate                       : 1 500 Kbps
    Width                          : 720 pixels
    Height                         : 404 pixels
    Display aspect ratio           : 16:9
    Original display aspect ratio  : 16:9
    Frame rate mode                : Variable
    Frame rate                     : 23.976 fps
    Minimum frame rate             : 7.992 fps
    Maximum frame rate             : 23.981 fps
    Color space                    : YUV
    Chroma subsampling             : 4:2:0
    Bit depth                      : 8 bits
    Scan type                      : Progressive
    Bits/(Pixel*Frame)             : 0.215
    Stream size                    : 1 013 MiB (90%)
    Writing library                : x264 core 142 r2479 dd79a61
    Encoding settings              : cabac=1 / ref=1 / deblock=1:0:0 / analyse=0x1:0x111 / me=hex / subme=2 / psy=1 / psy_rd=1.00:0.00 / mixed_ref=0 / me_range=16 / chroma_me=1 / trellis=0 / 8x8dct=0 / cqm=0 / deadzone=21,11 / fast_pskip=1 / chroma_qp_offset=0 / threads=12 / lookahead_threads=3 / sliced_threads=0 / nr=0 / decimate=1 / interlaced=0 / bluray_compat=0 / constrained_intra=0 / bframes=3 / b_pyramid=2 / b_adapt=1 / b_bias=0 / direct=1 / weightb=1 / open_gop=0 / weightp=1 / keyint=240 / keyint_min=24 / scenecut=40 / intra_refresh=0 / rc_lookahead=10 / rc=abr / mbtree=1 / bitrate=1500 / ratetol=1.0 / qcomp=0.60 / qpmin=0 / qpmax=69 / qpstep=4 / vbv_maxrate=20000 / vbv_bufsize=25000 / nal_hrd=none / filler=0 / ip_ratio=1.40 / aq=1:1.00
    Color range                    : Limited
    Color primaries                : BT.601 NTSC
    Transfer characteristics       : BT.709
    Matrix coefficients            : BT.601
    
    Audio
    ID                             : 2
    Format                         : AAC
    Format/Info                    : Advanced Audio Codec
    Format profile                 : LC
    Codec ID                       : 40
    Duration                       : 1h 33mn
    Bit rate mode                  : Variable
    Bit rate                       : 160 Kbps
    Channel(s)                     : 2 channels
    Channel positions              : Front: L R
    Sampling rate                  : 44.1 KHz
    Compression mode               : Lossy
    Stream size                    : 107 MiB (10%)
    Title                          : Stereo / Stereo
    
    720p
    Code:
    General
    Complete name                  : Dragon Ball Z Fukkatsu no F.mp4
    Format                         : MPEG-4
    Format profile                 : Base Media
    Codec ID                       : isom
    File size                      : 2.62 GiB
    Duration                       : 1h 33mn
    Overall bit rate mode          : Variable
    Overall bit rate               : 3 993 Kbps
    Encoded date                   : UTC 2015-10-12 19:47:54
    Tagged date                    : UTC 2015-10-12 19:47:54
    
    Video
    ID                             : 1
    Format                         : AVC
    Format/Info                    : Advanced Video Codec
    Format profile                 : [email protected]
    Format settings, CABAC         : No
    Format settings, ReFrames      : 1 frame
    Codec ID                       : avc1
    Codec ID/Info                  : Advanced Video Coding
    Duration                       : 1h 33mn
    Bit rate                       : 3 862 Kbps
    Maximum bit rate               : 22.1 Mbps
    Width                          : 1 280 pixels
    Height                         : 720 pixels
    Display aspect ratio           : 16:9
    Frame rate mode                : Constant
    Frame rate                     : 23.976 fps
    Color space                    : YUV
    Chroma subsampling             : 4:2:0
    Bit depth                      : 8 bits
    Scan type                      : Progressive
    Bits/(Pixel*Frame)             : 0.175
    Stream size                    : 2.54 GiB (97%)
    Title                          : [email protected]
    Writing library                : x264 core 146 r2538 121396c
    Encoding settings              : cabac=0 / ref=1 / deblock=0:0:0 / analyse=0:0 / me=dia / subme=0 / psy=1 / psy_rd=1.00:0.00 / mixed_ref=0 / me_range=16 / chroma_me=1 / trellis=0 / 8x8dct=0 / cqm=0 / deadzone=21,11 / fast_pskip=1 / chroma_qp_offset=0 / threads=6 / lookahead_threads=1 / sliced_threads=0 / nr=0 / decimate=1 / interlaced=0 / bluray_compat=0 / constrained_intra=0 / bframes=0 / weightp=0 / keyint=250 / keyint_min=23 / scenecut=0 / intra_refresh=0 / rc=2pass / mbtree=0 / bitrate=3862 / ratetol=1.0 / qcomp=0.60 / qpmin=0 / qpmax=69 / qpstep=4 / cplxblur=20.0 / qblur=0.5 / ip_ratio=1.40 / aq=0
    Encoded date                   : UTC 2015-10-12 19:47:54
    Tagged date                    : UTC 2015-10-12 19:51:24
    
    Audio
    ID                             : 2
    Format                         : AAC
    Format/Info                    : Advanced Audio Codec
    Format profile                 : LC
    Codec ID                       : 40
    Duration                       : 1h 33mn
    Bit rate mode                  : Variable
    Bit rate                       : 128 Kbps
    Maximum bit rate               : 178 Kbps
    Channel(s)                     : 2 channels
    Channel positions              : Front: L R
    Sampling rate                  : 48.0 KHz
    Compression mode               : Lossy
    Stream size                    : 85.7 MiB (3%)
    Encoded date                   : UTC 2015-10-12 18:45:48
    Tagged date                    : UTC 2015-10-12 19:51:24


    2 Parts bei 404p Version
    3 Parts bei 720p Version
    2.0 Audio


    || Download & Passwort ||


    Geschützter Bereich - Bedanke dich beim Poster, um den Bereich sehen zu können
    Hier erfährst Du wie Du Dich bedanken kannst oder werde jetzt Premium Mitglied ab einer Spende von 5€ und erhalte sofortigen Zugriff auf den Downloadbereich!

    Weiteres von Dragon Ball:
    [Links sind nur für registrierte und aktivierte Nutzer sichtbar. Klicke hier um dich zu registrieren.]
    [Links sind nur für registrierte und aktivierte Nutzer sichtbar. Klicke hier um dich zu registrieren.]
    [Links sind nur für registrierte und aktivierte Nutzer sichtbar. Klicke hier um dich zu registrieren.]
    [Links sind nur für registrierte und aktivierte Nutzer sichtbar. Klicke hier um dich zu registrieren.]
    [Links sind nur für registrierte und aktivierte Nutzer sichtbar. Klicke hier um dich zu registrieren.]
    [Links sind nur für registrierte und aktivierte Nutzer sichtbar. Klicke hier um dich zu registrieren.]
    [Links sind nur für registrierte und aktivierte Nutzer sichtbar. Klicke hier um dich zu registrieren.]
    [Links sind nur für registrierte und aktivierte Nutzer sichtbar. Klicke hier um dich zu registrieren.]

    Geändert von galudo (27. September 2016 um 23:52 Uhr)
    SUPPORT UND REUP ANFRAGEN NUR >> [Links sind nur für registrierte und aktivierte Nutzer sichtbar. Klicke hier um dich zu registrieren.] <<
    Bitte IMMER den Thread-Link mitschicken.

  2. 32 Benutzer sagen Danke:

    A R E S (1. November 2015),AKira_Hidaka (3. April 2016),Alaric (5. November 2015),BK-201 (2. April 2016),[email protected] [email protected] (19. October 2015),DarkLimited (13. November 2015),Donquixote (19. October 2015),Hixx (25. March 2016),Ignasum (19. October 2015),jeNova- (24. May 2016),Junkmaster (28. June 2016),Kazukyy (19. October 2015),Kradus (19. October 2015),LawMugen (6. January 2016),manuel4193 (19. October 2015),masta.ace (24. October 2015),Max13493 (29. November 2015),McZeRo (22. November 2015),midnighter (28. October 2015),Piwi (19. October 2015),Porco (20. October 2015),prinzvegeta (11. November 2015),realmadridcf (1. November 2015),Reaper1 (22. May 2016),Riyadoris (2. November 2015),Sasuke (27. October 2015),Sephi66 (19. October 2015),sonic1992j (19. October 2015),SONNYxq (27. October 2015),Usagi91 (16. May 2016),warsnail (31. July 2016),Xxchetahx (30. June 2016)

Stichworte

Lesezeichen

Berechtigungen

  • Neue Themen erstellen: Nein
  • Themen beantworten: Nein
  • Anhänge hochladen: Nein
  • Beiträge bearbeiten: Nein
  •  

1 2 3 4 5 6 7 8 9 10 11 12 13 14 15 16 17 18 19 20 21 22 23 24 25 26 27 28 29 30 31 32 33 34 35 36 37 38 39 40 41 42 43 44 45 46 47 48 49 50 51 52 53 54 55 56 57 58 59 60 61 62 63 64 65 66 67 68 69 70 71 72 73 74 75 76 77 78 79 80 81 82 83 84 85 86 87 88 89 90 91 92 93 94 95 96 97 98 99 100 101 102 103 104 105 106 107 108 109 110 111 112 113 114 115 116 117 118 119 120 121 122 123 124 125 126 127 128 129 130 131 132 133 134 135 136 137 138 139 140 141 142 143 144 145 146 147 148 149 150 151 152 153 154 155 156 157 158