Ergebnis 1 bis 2 von 2

Thema: Eve no Jikan Gekijouban [Jap-Dub][Ger-Sub][720p][1080p][BluRay]

Dieser Thread wurde durchschnittlich mit 5 Sternen bewertet, wobei 1 Stern die schlechteste und 5 Sterne die beste Bewertung ist. Es haben insgesamt 1 Mitglieder eine Bewertung abgegeben.

  1. #1
    Elite Avatar von Zetsu
    Registriert seit
    May 2013
    Beiträge
    685
    Punkte
    69.455
    Errungenschaften:
    TomodachisKapitänTagger Profi50000 ErfahrungspunkteHikikomori

    Eve no Jikan Gekijouban [Jap-Dub][Ger-Sub][720p][1080p][BluRay]



    Eve no Jikan Gekijouban
    イヴの時間 劇場版
    Time of Eve
    Eve's Time
    Eve no Jikan 1st Season Complete Edition






    Kurzbeschreibung
    Der Film "Eve no Jikan Gekijouban" ist eine ungekürzte Zusammenfassung der Originalserie, jedoch wird auch neues Filmmaterial gezeigt. Erzählt wird von einem Japan, in dem die Technik so weit fortgeschritten ist, dass Androide - Roboter mit menschlichem Aussehen - in vielen Haushalten als völlig normal empfunden werden. Der Protagonist Rikou ist ein ganz normaler Oberschüler, der ebenfalls mit solch einem Androiden als Haushaltshilfe aufgewachsen ist. Nun entdeckt er seit kurzer Zeit ungewöhnliche Einträge in der Verhaltenschronik seines Roboters Sammy und geht der Sache mit seinem Freund Masaki auf den Grund...

    ✰ Spieldauer pro Folge: 106 Min. ✰
    ✰ Format: mkv ✰
    ✰ Source: Bluray ✰
    ✰ Video-Codec: x264 ✰
    ✰ Resolution: 1280 x 720, 1920 x 1080 ✰
    ✰ Sprache: Japanisch ✰
    ✰ Untertitel: Deutsch ✰
    ✰ Größe: 1200MB (720p), 2700MB (1080p) ✰
    ✰ Releaser: SN-Subs ✰
    ✰ Hoster: Share-Online Uploaded ✰


    Details
    Spoiler

    720p
    Spoiler

    PHP-Code:
    General           : [SN-SubsEve no Jikan Gekijouban [720p][x264 AAC] [799D03A8]
    Format            MPEG-4 at 1 601 Kbps
    Length            
    1,19 GiB for 1h 46min 40s 518ms

    Video 
    #0          : 
    Format            AVC 8 bits at 1 446 Kbps
    Aspect            
    1280 x 720 (1.778at 23.976 fps
    Streamsize        
    1,08 GiB (90%)

    Audio #0          : 
    Format            AAC at 152 Kbps
    Infos             
    2 Kanäle48,0 KHz
    Streamsize        
    116 MiB (9%) 
    1080p
    Spoiler

    PHP-Code:
    General           : [SN-SubsEve no Jikan Gekijouban [1080p][x264 AAC] [E65702F6]
    Format            MPEG-4 at 3 600 Kbps
    Length            
    2,68 GiB for 1h 46min 40s 518ms

    Video 
    #0          : 
    Format            AVC 8 bits at 3 446 Kbps
    Aspect            
    1920 x 1080 (1.778at 23.976 fps
    Streamsize        
    2,57 GiB (96%)

    Audio #0          : 
    Format            AAC at 152 Kbps
    Infos             
    2 Kanäle48,0 KHz
    Streamsize        
    116 MiB (4%) 



    Geschützter Bereich - Bedanke dich beim Poster, um den Bereich sehen zu können
    Hier erfährst Du wie Du Dich bedanken kannst oder werde jetzt Premium Mitglied ab einer Spende von 5€ und erhalte sofortigen Zugriff auf den Downloadbereich!


    Geändert von Zetsu (24. August 2015 um 10:13 Uhr)
    Inaktiver Uploader!

    Alle Re-Upload-Anfragen öffentlich im [Links sind nur für registrierte und aktivierte Nutzer sichtbar. Klicke hier um dich zu registrieren.] posten!

  2. 130 Benutzer sagen Danke:

    Anzeigen

    4myAss (6. February 2015),Akio (1. November 2015),AKira_Hidaka (9. January 2016),Akumah (2. January 2015),alecander (25. August 2014),andiB (23. February 2015),Apocaliptica (13. October 2014),Asturaetus (15. July 2014),Atmozfear (20. August 2015),Attila494 (18. August 2014),badx (10. August 2015),BANDIMO (8. October 2015),beckerm (30. August 2014),Bloodyair (25. July 2016),Blubyblub (6. April 2014),BlutMoll (19. April 2016),Buschkilla (26. April 2015),ChristianLake (18. February 2014),Conopas (5. December 2014),Crimzan (28. February 2015),Cronix (25. October 2015),Ðāɱøȵ™ (26. August 2014),d.i.p.r.i.p._inactive (13. May 2015),DarkLightSlayer (19. June 2014),data_ghoul (28. August 2014),DeathBeast88 (30. March 2016),Deflamera (9. February 2014),der_colamann (4. August 2014),dionys (2. November 2014),DJPAUL1990 (23. March 2014),Dragon29 (30. April 2016),eckschrank (16. September 2015),galudo (15. February 2016),Geisterhaendler (28. August 2015),GiftGasBaer (18. July 2016),hacime (13. January 2015),hadis1000 (23. April 2014),Haiyato (17. November 2014),hanismustismann (30. November 2015),HellSPawn91 (9. February 2014),Hououin Kyouma (29. November 2014),IHIIDIHI (8. August 2014),Intege (13. May 2015),intelatominside (23. June 2015),IQcrack (8. February 2014),Itachi.Uchiha (4. December 2014),KaneTheMagic (7. October 2014),Katagashi (28. March 2015),khavatarie (5. May 2014),kilosierra (7. March 2014),kloricker (23. August 2016),Kranzn (7. November 2016),kutschi (28. February 2015),lamiron (29. April 2016),Lelouch92 (21. January 2015),LowT (21. August 2015),Lunacy (2. February 2015),Maggotcarrier (7. March 2015),Magicmanx (10. February 2016),Manelig (8. September 2014),manuel4193 (12. August 2014),mariokeks (23. February 2014),mclaurier (28. February 2016),meyno (14. October 2014),michael187 (16. May 2015),midnighter (28. December 2014),Mitchell (8. February 2015),moepmoep13 (26. July 2014),moflippa (16. February 2016),Mr.Shit (2. April 2016),mrlambda (4. February 2014),MurphCrusher (28. February 2014),Nanatzusaya (21. April 2015),nemo (1. October 2014),neocx (21. June 2014),NewPrime (7. May 2014),noobloser (16. July 2014),oNcLe (14. May 2014),Patrick1990 (24. April 2016),patuze (3. January 2015),Physicaligraphy (25. December 2014),Porco (5. February 2014),Praidon (28. March 2016),PS Freak (3. March 2016),Psycho-Shizuka (3. May 2015),RapidKill (30. April 2015),Raziel (25. March 2016),realmadridcf (6. January 2016),Red (2. December 2014),Ronae (13. April 2014),Roy_Coleman (5. February 2014),Ruff (5. February 2014),Runata (9. April 2016),RX333 (22. March 2015),S1M0N93 (11. June 2014),saarx (19. March 2014),Sairenji (28. March 2015),SantaKlaus (11. August 2014),scrabbler_inactive (19. September 2014),SerienStream (7. May 2015),Sharan955 (22. March 2016),Shirobaka (15. May 2014),Shirou (26. April 2015),Skinsuite (1. November 2014),speik128 (24. April 2015),Stoneman (24. February 2014),Subroutine (21. March 2015),sunnlo (10. March 2016),Sylux (10. September 2015),Tekk (12. February 2014),The_Iron (2. February 2014),Tidus18 (27. February 2015),tolosedoidos (3. February 2014),Tr4ck1 (19. May 2014),Usumaina (14. May 2014),Varkoo (4. February 2014),VatosLocos (5. September 2015),Viuren (22. July 2014),Vstrike (31. March 2015),Watashisan (6. April 2015),Wides (28. January 2015),Wölfchen (7. September 2014),Xenom (29. October 2016),Xerx3s (28. February 2014),xifaxufu (27. September 2014),Xxchetahx (25. April 2015),Yxcvbnm (30. December 2014),Zap (8. September 2014),Zyrinda (2. May 2015)

  3. #2
    Kami-sama Avatar von galudo
    Registriert seit
    Mar 2015
    Beiträge
    1.369
    Punkte
    25.903
    Errungenschaften:
    TomodachisTagger ProfiHyperaktivSenpaiGang Leader

    Eve no Jikan Gekijouban [Jap-Dub][Ger-Sub][720p][1080p][BluRay]

    Eve no Jikan Gekijouban
    イヴの時間 劇場版
    Time of Eve
    Eve's Time
    Eve no Jikan 1st Season Complete Edition



    Kurzbeschreibung
    Der Film "Eve no Jikan Gekijouban" ist eine ungekürzte Zusammenfassung der Originalserie, jedoch wird auch neues Filmmaterial gezeigt. Erzählt wird von einem Japan, in dem die Technik so weit fortgeschritten ist, dass Androide - Roboter mit menschlichem Aussehen - in vielen Haushalten als völlig normal empfunden werden. Der Protagonist Rikou ist ein ganz normaler Oberschüler, der ebenfalls mit solch einem Androiden als Haushaltshilfe aufgewachsen ist. Nun entdeckt er seit kurzer Zeit ungewöhnliche Einträge in der Verhaltenschronik seines Roboters Sammy und geht der Sache mit seinem Freund Masaki auf den Grund...
    Format: MKV
    Sprache: Japanisch
    Untertitel: Deutsch
    Genre: Alltagsleben, Drama, Science-Fiction
    Größe bei 1080p: ~ 2700 MB pro Folge
    Größe bei 720p: ~ 1200 MB pro Folge
    Dauer: ~ 105 Minuten
    Jahr: 2010
    Video: 720p & 1080p
    Source: BluRay
    Subgroup / Releasegroup: Shinigami-Neko-Subs

    Hoster: Share-Online | Uploaded
    Passwort: siehe unten


    Datei-Info
    MediaInfo
    720p
    Code:
    General
    Complete name                  : [SN-Subs] Eve no Jikan Gekijouban [720p][x264 AAC] [799D03A8].mp4
    Format                         : MPEG-4
    Format profile                 : Base Media
    Codec ID                       : isom
    File size                      : 1.19 GiB
    Duration                       : 1h 46mn
    Overall bit rate mode          : Variable
    Overall bit rate               : 1 601 Kbps
    Encoded date                   : UTC 2011-11-04 00:18:22
    Tagged date                    : UTC 2011-11-04 00:18:22
    
    Video
    ID                             : 1
    Format                         : AVC
    Format/Info                    : Advanced Video Codec
    Format profile                 : [email protected]
    Format settings, CABAC         : Yes
    Format settings, ReFrames      : 4 frames
    Codec ID                       : avc1
    Codec ID/Info                  : Advanced Video Coding
    Duration                       : 1h 46mn
    Bit rate                       : 1 446 Kbps
    Maximum bit rate               : 17.3 Mbps
    Width                          : 1 280 pixels
    Height                         : 720 pixels
    Display aspect ratio           : 16:9
    Frame rate mode                : Constant
    Frame rate                     : 23.976 fps
    Color space                    : YUV
    Chroma subsampling             : 4:2:0
    Bit depth                      : 8 bits
    Scan type                      : Progressive
    Bits/(Pixel*Frame)             : 0.065
    Stream size                    : 1.08 GiB (90%)
    Writing library                : x264 core 116 r2074 2641b9e
    Encoding settings              : cabac=1 / ref=3 / deblock=1:0:0 / analyse=0x3:0x113 / me=hex / subme=7 / psy=1 / psy_rd=1.00:0.00 / mixed_ref=1 / me_range=16 / chroma_me=1 / trellis=1 / 8x8dct=1 / cqm=0 / deadzone=21,11 / fast_pskip=1 / chroma_qp_offset=-2 / threads=6 / sliced_threads=0 / nr=0 / decimate=1 / interlaced=0 / bluray_compat=0 / constrained_intra=0 / bframes=3 / b_pyramid=2 / b_adapt=1 / b_bias=0 / direct=1 / weightb=1 / open_gop=0 / weightp=2 / keyint=250 / keyint_min=23 / scenecut=40 / intra_refresh=0 / rc_lookahead=40 / rc=2pass / mbtree=1 / bitrate=1446 / ratetol=1.0 / qcomp=0.60 / qpmin=0 / qpmax=69 / qpstep=4 / cplxblur=20.0 / qblur=0.5 / vbv_maxrate=31250 / vbv_bufsize=31250 / nal_hrd=none / ip_ratio=1.40 / aq=1:1.00
    Encoded date                   : UTC 2011-11-04 00:18:22
    Tagged date                    : UTC 2011-11-04 00:19:18
    
    Audio
    ID                             : 2
    Format                         : AAC
    Format/Info                    : Advanced Audio Codec
    Format profile                 : LC
    Codec ID                       : 40
    Duration                       : 1h 46mn
    Bit rate mode                  : Variable
    Bit rate                       : 152 Kbps
    Maximum bit rate               : 218 Kbps
    Channel(s)                     : 2 channels
    Channel positions              : Front: L R
    Sampling rate                  : 48.0 KHz
    Compression mode               : Lossy
    Stream size                    : 116 MiB (9%)
    Encoded date                   : UTC 2011-11-04 00:19:11
    Tagged date                    : UTC 2011-11-04 00:19:18
    1080p
    Code:
    General
    Complete name                  : [SN-Subs] Eve no Jikan Gekijouban [1080p][x264 AAC] [E65702F6].mp4
    Format                         : MPEG-4
    Format profile                 : Base Media
    Codec ID                       : isom
    File size                      : 2.68 GiB
    Duration                       : 1h 46mn
    Overall bit rate mode          : Variable
    Overall bit rate               : 3 600 Kbps
    Encoded date                   : UTC 2011-11-08 18:40:58
    Tagged date                    : UTC 2011-11-08 18:40:58
    
    Video
    ID                             : 1
    Format                         : AVC
    Format/Info                    : Advanced Video Codec
    Format profile                 : [email protected]
    Format settings, CABAC         : Yes
    Format settings, ReFrames      : 4 frames
    Codec ID                       : avc1
    Codec ID/Info                  : Advanced Video Coding
    Duration                       : 1h 46mn
    Bit rate                       : 3 446 Kbps
    Maximum bit rate               : 32.9 Mbps
    Width                          : 1 920 pixels
    Height                         : 1 080 pixels
    Display aspect ratio           : 16:9
    Frame rate mode                : Constant
    Frame rate                     : 23.976 fps
    Color space                    : YUV
    Chroma subsampling             : 4:2:0
    Bit depth                      : 8 bits
    Scan type                      : Progressive
    Bits/(Pixel*Frame)             : 0.069
    Stream size                    : 2.57 GiB (96%)
    Writing library                : x264 core 116 r2074 2641b9e
    Encoding settings              : cabac=1 / ref=3 / deblock=1:0:0 / analyse=0x3:0x113 / me=hex / subme=7 / psy=1 / psy_rd=1.00:0.00 / mixed_ref=1 / me_range=16 / chroma_me=1 / trellis=1 / 8x8dct=1 / cqm=0 / deadzone=21,11 / fast_pskip=1 / chroma_qp_offset=-2 / threads=6 / sliced_threads=0 / nr=0 / decimate=1 / interlaced=0 / bluray_compat=0 / constrained_intra=0 / bframes=3 / b_pyramid=2 / b_adapt=1 / b_bias=0 / direct=1 / weightb=1 / open_gop=0 / weightp=2 / keyint=250 / keyint_min=23 / scenecut=40 / intra_refresh=0 / rc_lookahead=40 / rc=2pass / mbtree=1 / bitrate=3446 / ratetol=1.0 / qcomp=0.60 / qpmin=0 / qpmax=69 / qpstep=4 / cplxblur=20.0 / qblur=0.5 / vbv_maxrate=31250 / vbv_bufsize=31250 / nal_hrd=none / ip_ratio=1.40 / aq=1:1.00
    Encoded date                   : UTC 2011-11-08 18:40:58
    Tagged date                    : UTC 2011-11-08 18:42:47
    
    Audio
    ID                             : 2
    Format                         : AAC
    Format/Info                    : Advanced Audio Codec
    Format profile                 : LC
    Codec ID                       : 40
    Duration                       : 1h 46mn
    Bit rate mode                  : Variable
    Bit rate                       : 152 Kbps
    Maximum bit rate               : 218 Kbps
    Channel(s)                     : 2 channels
    Channel positions              : Front: L R
    Sampling rate                  : 48.0 KHz
    Compression mode               : Lossy
    Stream size                    : 116 MiB (4%)
    Encoded date                   : UTC 2011-11-08 18:42:41
    Tagged date                    : UTC 2011-11-08 18:42:47


    2 parts bei 720p, 3 parts bei 1080p


    || Download & Passwort ||


    Geschützter Bereich - Bedanke dich beim Poster, um den Bereich sehen zu können
    Hier erfährst Du wie Du Dich bedanken kannst oder werde jetzt Premium Mitglied ab einer Spende von 5€ und erhalte sofortigen Zugriff auf den Downloadbereich!

    SUPPORT UND REUP ANFRAGEN NUR >> [Links sind nur für registrierte und aktivierte Nutzer sichtbar. Klicke hier um dich zu registrieren.] <<
    Bitte IMMER den Thread-Link mitschicken.

  4. 14 Benutzer sagen Danke:

    Bloodyair (25. July 2016),BlutMoll (16. April 2016),Drazcan (3. August 2016),Evilsensei (9. July 2016),GiftGasBaer (18. July 2016),heikobaer (25. March 2016),Ignasum (27. March 2016),kloricker (23. August 2016),Lautrerbomber (9. April 2016),Maskulin (6. August 2016),NUVAKWAHU (1. June 2016),Runata (9. April 2016),Tekk (25. March 2016),Xenom (31. October 2016)

Lesezeichen

Berechtigungen

  • Neue Themen erstellen: Nein
  • Themen beantworten: Nein
  • Anhänge hochladen: Nein
  • Beiträge bearbeiten: Nein
  •  

1 2 3 4 5 6 7 8 9 10 11 12 13 14 15 16 17 18 19 20 21 22 23 24 25 26 27 28 29 30 31 32 33 34 35 36 37 38 39 40 41 42 43 44 45 46 47 48 49 50 51 52 53 54 55 56 57 58 59 60 61 62 63 64 65 66 67 68 69 70 71 72 73 74 75 76 77 78 79 80 81 82 83 84 85 86 87 88 89 90 91 92 93 94 95 96 97 98 99 100 101 102 103 104 105 106 107 108 109 110 111 112 113 114 115 116 117 118 119 120 121 122 123 124 125 126 127 128 129 130 131 132 133 134 135 136 137 138 139 140 141 142 143 144 145 146 147 148 149 150 151 152 153 154 155 156 157 158