Ergebnis 1 bis 3 von 3

Thema: Final Fantasy - Die Mächte in Dir [GerDub][BDRip]

Dieser Thread wurde noch nicht bewertet. Bewerte ihn doch, wenn er dir gefällt!
  1. #1
    Erfahrener Otaku Avatar von ohlong
    Registriert seit
    Sep 2013
    Ort
    Im Herzen Deutschlands
    Beiträge
    151
    Punkte
    5.807
    Errungenschaften:
    TomodachisTagger Profi5000 ErfahrungspunkteHikikomori

    Final Fantasy - Die Mächte in Dir [GerDub][BDRip]



    Final Fantasy: Die Mächte in Dir
    Final Fantasy: The Spirits Within





    Kurzbeschreibung
    Mit einem Meteor, der im Jahr 2030 eingeschlagen ist, sind außerirdische Wesen, körperlose Phantome, auf die Erde gekommen, die einen Großteil der Menschen getötet und ihre Zivilisation weitgehend vernichtet haben. Die Überlebenden haben sich zurückgezogen in neue, besonders geschützte Städte, aus denen heraus die Armee gegen die Aliens kämpft. Bisher war alles vergeblich, doch nun, im Jahr 2065, verfügt das Militär unter General Hein über eine neue Waffe, die Zeus-Kanone, die die Phantome wahrscheinlich vernichten kann, aber vielleicht auch die Erde mit ihnen. Um dies zu verhindern, arbeiten die Wissenschaftlerin Aki Ross und ihr genialer Lehrer Dr. Sid an einem Projekt, das die Aliens neutralisieren könnte, ohne der Welt einen Schaden zuzufügen. Nur läuft ihnen die Zeit davon.

    Sprache: Deutsch
    Genre: Abenteuer, Krieg, Sci-Fi,
    Action, CG-Anime, Endzeit
    Source: Bluray
    Format: avi
    Video-Codec: Xvid
    Resolution: 800x432
    Größe: 1,95GB
    Releaser: FuN
    Hoster: Share-Online, Uploaded


    Technische Informationen
    Spoiler
    Code:
    Format                                   : AVI
    Format/Info                              : Audio Video Interleave
    File size                                : 1.95 GiB
    Duration                                 : 1h 45mn
    Overall bit rate                         : 2 635 Kbps
    Writing application                      : VirtualDubMod 1.5.10.2 (build 2540/release)
    Writing library                          : VirtualDubMod build 2540/release
    
    Video
    ID                                       : 0
    Format                                   : MPEG-4 Visual
    Format profile                           : Advanced [email protected]
    Format settings, BVOP                    : 1
    Format settings, QPel                    : No
    Format settings, GMC                     : No warppoints
    Format settings, Matrix                  : Default (H.263)
    Codec ID                                 : XVID
    Codec ID/Hint                            : XviD
    Duration                                 : 1h 45mn
    Bit rate                                 : 2 178 Kbps
    Width                                    : 800 pixels
    Height                                   : 432 pixels
    Display aspect ratio                     : 1.85:1
    Frame rate                               : 23.976 fps
    Color space                              : YUV
    Chroma subsampling                       : 4:2:0
    Bit depth                                : 8 bits
    Scan type                                : Progressive
    Compression mode                         : Lossy
    Bits/(Pixel*Frame)                       : 0.263
    Stream size                              : 1.61 GiB (83%)
    Writing library                          : XviD 1.2.1 (UTC 2008-12-04)
    
    Audio
    ID                                       : 1
    Format                                   : AC-3
    Format/Info                              : Audio Coding 3
    Mode extension                           : CM (complete main)
    Format settings, Endianness              : Big
    Codec ID                                 : 2000
    Duration                                 : 1h 45mn
    Bit rate mode                            : Constant
    Bit rate                                 : 448 Kbps
    Channel(s)                               : 6 channels
    Channel positions                        : Front: L C R, Side: L R, LFE
    Sampling rate                            : 48.0 KHz
    Bit depth                                : 16 bits
    Compression mode                         : Lossy
    Stream size                              : 339 MiB (17%)
    Alignment                                : Split accross interleaves
    Interleave, duration                     : 42 ms (1.00 video frame)
    Interleave, preload duration             : 500 ms



    Password
    [email protected]

    Geschützter Bereich - Bedanke dich beim Poster, um den Bereich sehen zu können
    Hier erfährst Du wie Du Dich bedanken kannst oder werde jetzt Premium Mitglied ab einer Spende von 5€ und erhalte sofortigen Zugriff auf den Downloadbereich!

    Geändert von ohlong (12. January 2016 um 16:18 Uhr)

  2. 21 Benutzer sagen Danke:

    4myAss (6. February 2015),Akio (18. December 2015),ani212 (11. November 2015),app82_inactive (4. January 2015),badx (13. February 2015),bloodyfloh (29. December 2014),boemb80_inactive (12. April 2014),Callisto (9. January 2015),Demolchen (7. July 2015),Gourmet-Cannibal (5. January 2015),Ignasum (20. August 2015),Jinnay (28. December 2014),kilosierra (8. March 2014),Kitefist (11. January 2015),Kurzey (2. September 2015),midnighter (23. December 2014),Miles360 (28. December 2014),Natsuki (9. March 2016),riku14466 (23. April 2014),Tquilarius (16. January 2014),Zaisen (24. October 2013)

  3. #2
    Erfahrener Otaku Avatar von ohlong
    Registriert seit
    Sep 2013
    Ort
    Im Herzen Deutschlands
    Beiträge
    151
    Punkte
    5.807
    Errungenschaften:
    TomodachisTagger Profi5000 ErfahrungspunkteHikikomori

    AW: Final Fantasy - Die Mächte in Dir [GerDub][BDRip]

    Reup auf Share-Online & Uploaded

  4. #3
    Erfahrener Otaku Avatar von ohlong
    Registriert seit
    Sep 2013
    Ort
    Im Herzen Deutschlands
    Beiträge
    151
    Punkte
    5.807
    Errungenschaften:
    TomodachisTagger Profi5000 ErfahrungspunkteHikikomori

    AW: Final Fantasy - Die Mächte in Dir [GerDub][BDRip]

    Reup auf Share-Online & Uploaded

Stichworte

Lesezeichen

Berechtigungen

  • Neue Themen erstellen: Nein
  • Themen beantworten: Nein
  • Anhänge hochladen: Nein
  • Beiträge bearbeiten: Nein
  •  

1 2 3 4 5 6 7 8 9 10 11 12 13 14 15 16 17 18 19 20 21 22 23 24 25 26 27 28 29 30 31 32 33 34 35 36 37 38 39 40 41 42 43 44 45 46 47 48 49 50 51 52 53 54 55 56 57 58 59 60 61 62 63 64 65 66 67 68 69 70 71 72 73 74 75 76 77 78 79 80 81 82 83 84 85 86 87 88 89 90 91 92 93 94 95 96 97 98 99 100 101 102 103 104 105 106 107 108 109 110 111 112 113 114 115 116 117 118 119 120 121 122 123 124 125 126 127 128 129 130 131 132 133 134 135 136 137 138 139 140 141 142 143 144 145 146 147 148 149 150 151 152 153 154 155 156 157 158