Ergebnis 1 bis 2 von 2

Thema: First Squad Moment der Wahrheit 2009 German AC3D 1080p BluRay x264 - msd

Dieser Thread wurde noch nicht bewertet. Bewerte ihn doch, wenn er dir gefällt!
  1. #1
    High Quality Anime Avatar von Uploading123
    Registriert seit
    Mar 2013
    Beiträge
    1.009
    Punkte
    44.135
    Errungenschaften:
    TomodachisTagger Amateur25000 ErfahrungspunkteHikikomoriKapitän

    First Squad Moment der Wahrheit 2009 German AC3D 1080p BluRay x264 - msd


    First.Squad.Moment.der.Wahrheit.2009.German.AC3D.1 080p.BluRay.x264-msd



    .:Beschreibung:.
    Nadya ist ein ganz besonderes 14-jähriges Mädchen: aufgrund ihrer außergewöhnlichen übersinnlichen Fähigkeiten und ihrer Ausbildung als Profikillerin, rekrutiert die russische Armee sie während des Zweiten Weltkriegs und teilt sie dem "First Squad" zu, einer auf die Bekämpfung paranormaler Kräfte spezialisierten Einheit. Als einzige Überlebende eines brutalen Angriffs wird ihr eine Sondermission übertragen: Sie soll ihre Kameraden aus dem Jenseits zurückholen, um Von Wolff zu vernichten, einen 700 Jahre alten Geist, der zum Leben erweckt wurde, um den Nazis zu helfen, die Welt zu erobern.


    .:Info:.
    Größe: 2896.73 MB
    Laufzeit: 60 Min.
    Format: .mkv
    Video Stream: BD
    Video Codec: MPEG-4 H.264 / AVC
    Audio Stream: Dolby Digital 5.1
    Sprache/n: GER
    Genre: Animation

    .:NFO:.
    Spoiler
    Code:
    General
    Unique ID                                : 212724148449423124454693030611339448780 (0xA0092E44EE4F0328AC46968AEF3411CC)
    Complete name                            : First.Squad.Moment.der.Wahrheit.2009.German.AC3D.1080p.BluRay.x264-msd.mkv
    Format                                   : Matroska
    Format version                           : Version 2
    File size                                : 2.83 GiB
    Duration                                 : 59mn 51s
    Overall bit rate                         : 6 766 Kbps
    Encoded date                             : UTC 2012-06-10 22:46:15
    Writing application                      : mkvmerge v5.6.0 ('Kenya Kane') built on May 27 2012 16:44:04
    Writing library                          : libebml v1.2.3 + libmatroska v1.3.0
    
    Video
    ID                                       : 1
    Format                                   : AVC
    Format/Info                              : Advanced Video Codec
    Format profile                           : [email protected]
    Format settings, CABAC                   : Yes
    Format settings, ReFrames                : 4 frames
    Codec ID                                 : V_MPEG4/ISO/AVC
    Duration                                 : 59mn 51s
    Bit rate                                 : 6 332 Kbps
    Width                                    : 1 920 pixels
    Height                                   : 1 080 pixels
    Display aspect ratio                     : 16:9
    Frame rate mode                          : Constant
    Frame rate                               : 23.976 fps
    Color space                              : YUV
    Chroma subsampling                       : 4:2:0
    Bit depth                                : 8 bits
    Scan type                                : Progressive
    Bits/(Pixel*Frame)                       : 0.127
    Stream size                              : 2.59 GiB (91%)
    Writing library                          : x264 core 122 r2184 5c85e0a
    Encoding settings                        : cabac=1 / ref=4 / deblock=1:0:0 / analyse=0x3:0x2 / me=umh / subme=7 / psy=1 / psy_rd=1.00:0.00 / mixed_ref=1 / me_range=16 / chroma_me=1 / trellis=1 / 8x8dct=1 / cqm=0 / deadzone=21,11 / fast_pskip=1 / chroma_qp_offset=-2 / threads=6 / sliced_threads=0 / nr=0 / decimate=1 / interlaced=0 / bluray_compat=0 / constrained_intra=0 / bframes=3 / b_pyramid=2 / b_adapt=1 / b_bias=0 / direct=1 / weightb=0 / open_gop=0 / weightp=2 / keyint=240 / keyint_min=23 / scenecut=40 / intra_refresh=0 / rc=2pass / mbtree=0 / bitrate=6332 / ratetol=1.0 / qcomp=0.60 / qpmin=10 / qpmax=51 / qpstep=4 / cplxblur=20.0 / qblur=0.5 / ip_ratio=1.40 / pb_ratio=1.30 / aq=1:1.00
    Default                                  : Yes
    Forced                                   : No
    
    Audio
    ID                                       : 2
    Format                                   : AC-3
    Format/Info                              : Audio Coding 3
    Mode extension                           : CM (complete main)
    Format settings, Endianness              : Big
    Codec ID                                 : A_AC3
    Duration                                 : 59mn 51s
    Bit rate mode                            : Constant
    Bit rate                                 : 448 Kbps
    Channel count                            : 6 channels
    Channel positions                        : Front: L C R, Side: L R, LFE
    Sampling rate                            : 48.0 KHz
    Bit depth                                : 16 bits
    Compression mode                         : Lossy
    Stream size                              : 192 MiB (7%)
    Language                                 : German
    Default                                  : Yes
    Forced                                   : No
    
    Text
    ID                                       : 3
    Format                                   : UTF-8
    Codec ID                                 : S_TEXT/UTF8
    Codec ID/Info                            : UTF-8 Plain Text
    Language                                 : English
    Default                                  : No
    Forced                                   : No


    Mirrors kompatibel

    .:Uploaded.net:.
    Geschützter Bereich - Bedanke dich beim Poster, um den Bereich sehen zu können
    Hier erfährst Du wie Du Dich bedanken kannst oder werde jetzt Premium Mitglied ab einer Spende von 5€ und erhalte sofortigen Zugriff auf den Downloadbereich!

    .:Share-online.biz:.
    Geschützter Bereich - Bedanke dich beim Poster, um den Bereich sehen zu können
    Hier erfährst Du wie Du Dich bedanken kannst oder werde jetzt Premium Mitglied ab einer Spende von 5€ und erhalte sofortigen Zugriff auf den Downloadbereich!


  2. 31 Benutzer sagen Danke:

    Akatsuki (15. April 2015),Anathos (21. November 2016),basdi (25. January 2016),Benjiro (27. July 2015),Blackdragon1702 (20. October 2015),Deadman_01 (27. April 2015),DonCarlos (17. April 2016),downloader_1987 (14. July 2015),Gorbatschow (17. November 2016),Griever (17. December 2015),hunter4320 (12. July 2015),KainIV (6. May 2016),kakashi656 (8. July 2016),Kartox (15. June 2015),Kinasix (6. August 2015),LostRay (31. January 2016),meins-ag (12. March 2016),midnighter (25. March 2015),Mr.Shit (30. June 2015),Nillus (13. July 2015),Quetzal Coatl (18. July 2015),Seki (16. January 2016),Shana:3 (21. November 2015),Shinu Luna (22. November 2015),SiiiNaN (27. April 2015),SONNYxq (30. June 2015),specialt121 (15. September 2016),Spotix (24. October 2015),Terraner (9. July 2016),Vinh (25. February 2016)

  3. #2
    United we Stand Avatar von 00Ryuji00
    Registriert seit
    Oct 2012
    Beiträge
    3.896
    Punkte
    99.716
    Errungenschaften:
    TomodachisGang LeaderHikikomoriTagger Amateur50000 Erfahrungspunkte

    AW: First Squad: Moment der Wahrheit [Ger-Dub][Eng-Sub][1080p][BluRay]

    First Squad: The Moment of Truth
    ファースト・スクワッド
    Первый отряд
    1st squad



    Kurzbeschreibung:
    Man schreibt das Jahr 1942. Die Rote Armee leistet den deutschen Invasoren erbitterten Widerstand. Die 14-jährige Nadya, ein Medium, gerät in einen Luftangriff, in Folge dessen sie eine Gehirnerschütterung und ein Trauma erleidet. Während sie sich davon erholt, bemerkt sie, dass sie über eine neue Gabe verfügt. Sie ist nun in der Lage "Momente der Wahrheit" vorauszusagen, die kritischsten Momente zukünftiger Schlachten, in denen die Handlung von nur einer Person den Ausgang entscheidet.

    Nadyas Fähigkeit ist essentiell für die geheime sechste Division des russischen Militärgeheimdienstes, die unbemerkt von der Öffentlichkeit einen Krieg gegen "Ahnenerbe" führt, einen okkulten Orden innerhalb der SS. Ahnenerbe erweckt den mächtigen Prinzen Baron von Wolff und seine Armee von Kreuzfahrern aus dem 12. Jahrhundert von den Toten, um mit seiner Hilfe die Weltherrschaft zu erlangen. Ihm stellt sich nun Nadya gemeinsam mit dem First Squad entgegen, einer Gruppe von vom Militär rekrutierten Teenagern, die jeweils über eine besondere Fähigkeit verfügen.
    Sprache: Deutsch
    Untertitel: Englisch
    Spieldauer: ~ 60min
    Größe: ~ 2,83GB
    Format: .mkv
    Auflösung: 1080p (1920x1080, 16:9)
    Codec: x264, AC-3
    Gruppe: msd
    Hoster: Uploaded, Share-Online

    Datei-Info.:
    Spoiler
    Code:
    Format                                   : Matroska
    Format version                           : Version 2
    File size                                : 2.83 GiB
    Duration                                 : 59mn 51s
    Overall bit rate                         : 6 766 Kbps
    Encoded date                             : UTC 2012-06-10 22:46:15
    Writing application                      : mkvmerge v5.6.0 ('Kenya Kane') built on May 27 2012 16:44:04
    Writing library                          : libebml v1.2.3 + libmatroska v1.3.0
    
    Video
    ID                                       : 1
    Format                                   : AVC
    Format/Info                              : Advanced Video Codec
    Format profile                           : [email protected]
    Format settings, CABAC                   : Yes
    Format settings, ReFrames                : 4 frames
    Codec ID                                 : V_MPEG4/ISO/AVC
    Duration                                 : 59mn 51s
    Bit rate                                 : 6 332 Kbps
    Width                                    : 1 920 pixels
    Height                                   : 1 080 pixels
    Display aspect ratio                     : 16:9
    Frame rate mode                          : Constant
    Frame rate                               : 23.976 fps
    Color space                              : YUV
    Chroma subsampling                       : 4:2:0
    Bit depth                                : 8 bits
    Scan type                                : Progressive
    Bits/(Pixel*Frame)                       : 0.127
    Stream size                              : 2.59 GiB (91%)
    Writing library                          : x264 core 122 r2184 5c85e0a
    Encoding settings                        : cabac=1 / ref=4 / deblock=1:0:0 / analyse=0x3:0x2 / me=umh / subme=7 / psy=1 / psy_rd=1.00:0.00 / mixed_ref=1 / me_range=16 / chroma_me=1 / trellis=1 / 8x8dct=1 / cqm=0 / deadzone=21,11 / fast_pskip=1 / chroma_qp_offset=-2 / threads=6 / sliced_threads=0 / nr=0 / decimate=1 / interlaced=0 / bluray_compat=0 / constrained_intra=0 / bframes=3 / b_pyramid=2 / b_adapt=1 / b_bias=0 / direct=1 / weightb=0 / open_gop=0 / weightp=2 / keyint=240 / keyint_min=23 / scenecut=40 / intra_refresh=0 / rc=2pass / mbtree=0 / bitrate=6332 / ratetol=1.0 / qcomp=0.60 / qpmin=10 / qpmax=51 / qpstep=4 / cplxblur=20.0 / qblur=0.5 / ip_ratio=1.40 / pb_ratio=1.30 / aq=1:1.00
    Default                                  : Yes
    Forced                                   : No
    
    Audio
    ID                                       : 2
    Format                                   : AC-3
    Format/Info                              : Audio Coding 3
    Mode extension                           : CM (complete main)
    Format settings, Endianness              : Big
    Codec ID                                 : A_AC3
    Duration                                 : 59mn 51s
    Bit rate mode                            : Constant
    Bit rate                                 : 448 Kbps
    Channel count                            : 6 channels
    Channel positions                        : Front: L C R, Side: L R, LFE
    Sampling rate                            : 48.0 KHz
    Bit depth                                : 16 bits
    Compression mode                         : Lossy
    Stream size                              : 192 MiB (7%)
    Language                                 : German
    Default                                  : Yes
    Forced                                   : No
    
    Text
    ID                                       : 3
    Format                                   : UTF-8
    Codec ID                                 : S_TEXT/UTF8
    Codec ID/Info                            : UTF-8 Plain Text
    Language                                 : English
    Default                                  : No
    Forced                                   : No
    


    Geschützter Bereich - Bedanke dich beim Poster, um den Bereich sehen zu können
    Hier erfährst Du wie Du Dich bedanken kannst oder werde jetzt Premium Mitglied ab einer Spende von 5€ und erhalte sofortigen Zugriff auf den Downloadbereich!
    !!!Alle Anliegen bezüglich Uploads werden nur mit direktem Threadlink zum Angebot bearbeitet!!!

    Re-Uploadanfragen nur per PN - Ihr könnt mir auch Listen schicken

    Re-Uploads erfolgen meist innerhalb 24h, kann aber auch bis zu 7 Tage dauern

    [Links sind nur für registrierte und aktivierte Nutzer sichtbar. Klicke hier um dich zu registrieren.] | [Links sind nur für registrierte und aktivierte Nutzer sichtbar. Klicke hier um dich zu registrieren.] | >[Links sind nur für registrierte und aktivierte Nutzer sichtbar. Klicke hier um dich zu registrieren.]<
    [Links sind nur für registrierte und aktivierte Nutzer sichtbar. Klicke hier um dich zu registrieren.]

  4. 8 Benutzer sagen Danke:

    Alecith (11. July 2015),Gorbatschow (17. November 2016),LostRay (31. January 2016),meins-ag (12. March 2016),SONNYxq (30. June 2015),Spotix (24. October 2015),Terraner (9. July 2016),Wastl (8. July 2015)

Lesezeichen

Berechtigungen

  • Neue Themen erstellen: Nein
  • Themen beantworten: Nein
  • Anhänge hochladen: Nein
  • Beiträge bearbeiten: Nein
  •  

1 2 3 4 5 6 7 8 9 10 11 12 13 14 15 16 17 18 19 20 21 22 23 24 25 26 27 28 29 30 31 32 33 34 35 36 37 38 39 40 41 42 43 44 45 46 47 48 49 50 51 52 53 54 55 56 57 58 59 60 61 62 63 64 65 66 67 68 69 70 71 72 73 74 75 76 77 78 79 80 81 82 83 84 85 86 87 88 89 90 91 92 93 94 95 96 97 98 99 100 101 102 103 104 105 106 107 108 109 110 111 112 113 114 115 116 117 118 119 120 121 122 123 124 125 126 127 128 129 130 131 132 133 134 135 136 137 138 139 140 141 142 143 144 145 146 147 148 149 150 151 152 153 154 155 156 157 158