Ergebnis 1 bis 1 von 1

Thema: Flüstern des Meeres - Ocean Waves (1993) + Extras [Ger-Jap-Dub][FLAC][Ger-Eng-Jap-Sub][1080p][BluRay][Remux]-SantaKlaus

Dieser Thread wurde noch nicht bewertet. Bewerte ihn doch, wenn er dir gefällt!
  1. #1
    Kleiner Experte Avatar von SantaKlaus
    Registriert seit
    Feb 2014
    Beiträge
    103
    Punkte
    5.867
    Errungenschaften:
    Hikikomori5000 Erfahrungspunkte

    Flüstern des Meeres - Ocean Waves (1993) + Extras [Ger-Jap-Dub][FLAC][Ger-Eng-Jap-Sub][1080p][BluRay][Remux]-SantaKlaus

    Flüstern des Meeres: Ocean Waves
    Umi ga Kikoeru
    海がきこえる






    Kurzbeschreibung:
    Die beiden Schüler Taku und Yutaka sind beste Freunde und gemeinsam drücken sie auch die Schulbank in der kleinen Stadt Kochi. Eines Tages kommt ein attraktives Mädchen namens Rikako aus der Großstadt nach Kochi, um dort die Highschool weiter zu besuchen. Bereits nach kurzer Zeit ist sie die Klassenbeste, allerdings wird sie wegen ihrer arroganten Art von den übrigen Mädchen ausgeschlossen. Yutaka findet dennoch Gefallen an ihr und verliebt sich in sie. Als jedoch das Gerücht umgeht, dass Taku und Rikako ein Paar sind, wird die Freundschaft der Beiden auf eine harte Probe gestellt. Ocean Waves gibt einen kleinen Einblick in das Alltagsleben von japanischen Jugendlichen und zeigt mit viel Gefühl den manchmal mühsamen Weg des Erwachsenwerdens.


    Format: 16:9
    Auflösung: 1080p
    Source: Blu-ray
    Codec: AVC
    Hoster: Share-Online
    Ton:
    Deutsch FLAC 2.0 (AC3 von dt DVD lossless slowdown)
    Japanisch FLAC 2.0 (von jp BD PCM)

    Dateiliste
    Spoiler
    Code:
    Flüstern des Meeres - Ocean Waves (1993)/Flüstern des Meeres - Ocean Waves (1993).mkv
    Flüstern des Meeres - Ocean Waves (1993)/Behind The Scenes/Making Of- Die Macher bei der Arbeit.mkv
    Flüstern des Meeres - Ocean Waves (1993)/Behind The Scenes/Storyboard zum kompletten Film.mkv
    Flüstern des Meeres - Ocean Waves (1993)/Scenes/Original Ending.mkv
    Flüstern des Meeres - Ocean Waves (1993)/Scenes/Original Opening.mkv
    Flüstern des Meeres - Ocean Waves (1993)/Trailers/Original Trailer - Kurzfassung.mkv
    Flüstern des Meeres - Ocean Waves (1993)/Trailers/Original Trailer - Langfassung.mkv
    Flüstern des Meeres - Ocean Waves (1993)/Trailers/Promotional Videos A & B.mkv


    MediaInfo
    Spoiler
    Code:
    General
    Unique ID                   : 224175881125730876701016028299772908441 (0xA8A6B448378CC82689EE050524A55399)
    Complete name               : Flüstern des Meeres - Ocean Waves (1993).mkv
    Format                      : Matroska
    Format version              : Version 4 / Version 2
    File size                   : 20.5 GiB
    Duration                    : 1h 12mn
    Overall bit rate mode       : Variable
    Overall bit rate            : 40.7 Mbps
    Encoded date                : UTC 2016-02-28 09:56:40
    Writing application         : mkvmerge v8.9.0 ('Father Daughter') 64bit
    Writing library             : libebml v1.3.3 + libmatroska v1.4.4
    
    Video
    ID                          : 1
    Format                      : AVC
    Format/Info                 : Advanced Video Codec
    Format profile              : [email protected]
    Format settings, CABAC      : Yes
    Format settings, ReFrames   : 2 frames
    Codec ID                    : V_MPEG4/ISO/AVC
    Duration                    : 1h 12mn
    Bit rate                    : 38.5 Mbps
    Width                       : 1 920 pixels
    Height                      : 1 080 pixels
    Display aspect ratio        : 16:9
    Frame rate mode             : Constant
    Frame rate                  : 23.976 (24000/1001) fps
    Color space                 : YUV
    Chroma subsampling          : 4:2:0
    Bit depth                   : 8 bits
    Scan type                   : Progressive
    Bits/(Pixel*Frame)          : 0.775
    Stream size                 : 19.4 GiB (95%)
    Language                    : Japanese
    Default                     : No
    Forced                      : No
    
    Audio #1
    ID                          : 2
    Format                      : FLAC
    Format/Info                 : Free Lossless Audio Codec
    Codec ID                    : A_FLAC
    Duration                    : 1h 12mn
    Bit rate mode               : Variable
    Bit rate                    : 1 361 Kbps
    Channel(s)                  : 2 channels
    Channel positions           : Front: L R
    Sampling rate               : 48.0 KHz
    Frame rate                  : 11.719 fps (4096 spf)
    Bit depth                   : 24 bits
    Delay relative to video     : 110ms
    Stream size                 : 702 MiB (3%)
    Writing library             : libFLAC 1.2.1 (UTC 2007-09-17)
    Language                    : German
    Default                     : Yes
    Forced                      : No
    
    Audio #2
    ID                          : 3
    Format                      : FLAC
    Format/Info                 : Free Lossless Audio Codec
    Codec ID                    : A_FLAC
    Duration                    : 1h 12mn
    Bit rate mode               : Variable
    Bit rate                    : 720 Kbps
    Channel(s)                  : 2 channels
    Channel positions           : Front: L R
    Sampling rate               : 48.0 KHz
    Frame rate                  : 10.417 fps (4608 spf)
    Bit depth                   : 24 bits
    Stream size                 : 371 MiB (2%)
    Writing library             : MakeMKV v1.9.9 win(x64-release)
    Language                    : Japanese
    Default                     : No
    Forced                      : No
    
    Text #1
    ID                          : 4
    Format                      : UTF-8
    Codec ID                    : S_TEXT/UTF8
    Codec ID/Info               : UTF-8 Plain Text
    Duration                    : 1h 11mn
    Bit rate                    : 2 bps
    Count of elements           : 41
    Stream size                 : 1.08 KiB (0%)
    Language                    : German
    Default                     : Yes
    Forced                      : Yes
    
    Text #2
    ID                          : 5
    Format                      : PGS
    Muxing mode                 : zlib
    Codec ID                    : S_HDMV/PGS
    Codec ID/Info               : Picture based subtitle format used on BDs/HD-DVDs
    Duration                    : 1h 11mn
    Bit rate                    : 1 640 bps
    Count of elements           : 1584
    Stream size                 : 864 KiB (0%)
    Language                    : German
    Default                     : No
    Forced                      : No
    
    Text #3
    ID                          : 6
    Format                      : PGS
    Muxing mode                 : zlib
    Codec ID                    : S_HDMV/PGS
    Codec ID/Info               : Picture based subtitle format used on BDs/HD-DVDs
    Duration                    : 1h 11mn
    Bit rate                    : 11.5 Kbps
    Count of elements           : 1647
    Stream size                 : 5.91 MiB (0%)
    Language                    : English
    Default                     : No
    Forced                      : No
    
    Text #4
    ID                          : 7
    Format                      : PGS
    Muxing mode                 : zlib
    Codec ID                    : S_HDMV/PGS
    Codec ID/Info               : Picture based subtitle format used on BDs/HD-DVDs
    Duration                    : 1h 11mn
    Bit rate                    : 18.3 Kbps
    Count of elements           : 2682
    Stream size                 : 9.38 MiB (0%)
    Language                    : Japanese
    Default                     : No
    Forced                      : No
    
    Menu
    00:00:00.000                : de:1 Freunde
    00:06:21.839                : de:2 Der Protest
    00:12:07.268                : de:3 Das neue Mädchen
    00:20:01.200                : de:4 Geldsorgen
    00:27:54.673                : de:5 Am Flughafen
    00:33:15.159                : de:6 Rikakos Vater
    00:38:28.306                : en:Chapter 7
    00:43:13.173                : de:8 Das Treffen
    00:47:49.116                : de:9 Das Gerücht
    00:52:42.617                : de:10 Streitigkeiten
    00:58:50.235                : de:11 In der Bar
    01:04:59.520                : de:12 Gedanken
    01:09:20.156                : de:13 Abspann



    Geschützter Bereich - Bedanke dich beim Poster, um den Bereich sehen zu können
    Hier erfährst Du wie Du Dich bedanken kannst oder werde jetzt Premium Mitglied ab einer Spende von 5€ und erhalte sofortigen Zugriff auf den Downloadbereich!

  2. 31 Benutzer sagen Danke:

    BlutMoll (22. April 2016),Conopas (3. March 2016),Deshi25 (16. April 2016),DJPAUL1990 (29. February 2016),DonCarlos (10. April 2016),fullmetal1995 (13. March 2016),infinest (14. April 2016),Jisagi (9. March 2016),JOKER357thomas (14. June 2016),kakashi656 (8. July 2016),Kammi_ (25. June 2016),kei (6. July 2016),Loki92 (21. April 2016),Lugiano (9. October 2016),midnighter (27. March 2016),mr krabs (29. July 2016),N0raest1mos (9. July 2016),nabou (19. March 2016),nemo (4. March 2016),Neyzu (19. March 2016),PatMorita (19. July 2016),Pazu (3. November 2016),prinzvegeta (31. May 2016),skylier (3. June 2016),stellar (17. March 2016),Swani (16. May 2016),Terraner (17. March 2016),tokyodrift (27. June 2016),volker027 (29. March 2016),Voodoolol (4. April 2016),zimbo201174 (5. March 2016)

Lesezeichen

Berechtigungen

  • Neue Themen erstellen: Nein
  • Themen beantworten: Nein
  • Anhänge hochladen: Nein
  • Beiträge bearbeiten: Nein
  •  

1 2 3 4 5 6 7 8 9 10 11 12 13 14 15 16 17 18 19 20 21 22 23 24 25 26 27 28 29 30 31 32 33 34 35 36 37 38 39 40 41 42 43 44 45 46 47 48 49 50 51 52 53 54 55 56 57 58 59 60 61 62 63 64 65 66 67 68 69 70 71 72 73 74 75 76 77 78 79 80 81 82 83 84 85 86 87 88 89 90 91 92 93 94 95 96 97 98 99 100 101 102 103 104 105 106 107 108 109 110 111 112 113 114 115 116 117 118 119 120 121 122 123 124 125 126 127 128 129 130 131 132 133 134 135 136 137 138 139 140 141 142 143 144 145 146 147 148 149 150 151 152 153 154 155 156 157 158