Ergebnis 1 bis 1 von 1

Thema: Gekijouban Naruto: Blood Prison [Film5][JapDub][GerSub][720p][HDTV]

Dieser Thread wurde noch nicht bewertet. Bewerte ihn doch, wenn er dir gefällt!
  1. #1
    Kami-sama Avatar von galudo
    Registriert seit
    Mar 2015
    Beiträge
    1.370
    Punkte
    25.935
    Errungenschaften:
    TomodachisTagger ProfiHyperaktivSenpaiGang Leader

    Gekijouban Naruto: Blood Prison [Film5][JapDub][GerSub][720p][HDTV]

    Gekijouban Naruto: Blood Prison
    劇場版 NARUTO ブラッド・プリズン
    Naruto Shippuuden Movie 5



    Kurzbeschreibung
    Naruto wird vorgeworfen, mehrere Jounin aus Kirigakure und Iwagakure getötet zu haben und einen Anschlag auf den Raikage verübt zu haben. Im Prozess wird er für schuldig erkannt und landet im Gefängnis in Houzukijou, dem Blood Prison. Master Mui, der Leiter des Gefängnis, bedient sich dabei einer ulimativen Technik, um die Kräfte der Häftlinge zu versiegeln. Gerade jetzt wird es Naruto zum Verhängnis, der im Kampf um seine Unschuld auch noch auf der Abschussliste einer Organisation landet…
    Format: MP4
    Sprache: Japanisch
    Untertitel: Deutsch
    Größe: ~ 1,41 GB
    Dauer: ~ 88 Minuten
    Jahr: 2011
    Video: 720p
    Source: HDTV
    Subgroup / Releasegroup: Tomo ni Fansubs
    Hoster: Share-Online| Uploaded
    Passwort: siehe unten


    Datei-Info
    Spoiler
    Code:
    General
    Format                         : MPEG-4
    Format profile                 : Base Media
    Codec ID                       : isom
    File size                      : 1.41 GiB
    Duration                       : 1h 28mn
    Overall bit rate mode          : Variable
    Overall bit rate               : 2 276 Kbps
    
    Video
    ID                             : 1
    Format                         : AVC
    Format/Info                    : Advanced Video Codec
    Format profile                 : [email protected]
    Format settings, CABAC         : Yes
    Format settings, ReFrames      : 6 frames
    Codec ID                       : avc1
    Codec ID/Info                  : Advanced Video Coding
    Duration                       : 1h 28mn
    Source duration                : 2mn 48s
    Bit rate                       : 2 059 Kbps
    Maximum bit rate               : 8 712 Kbps
    Width                          : 1 280 pixels
    Height                         : 720 pixels
    Display aspect ratio           : 16:9
    Frame rate mode                : Constant
    Frame rate                     : 23.976 fps
    Color space                    : YUV
    Chroma subsampling             : 4:2:0
    Bit depth                      : 8 bits
    Scan type                      : Progressive
    Bits/(Pixel*Frame)             : 0.093
    Stream size                    : 1.28 GiB (90%)
    Source stream size             : 1.28 GiB (90%)
    Writing library                : x264 core 128 r2216 198a7ea
    Encoding settings              : cabac=1 / ref=6 / deblock=1:1:1 / analyse=0x3:0x113 / me=umh / subme=9 / psy=1 / psy_rd=1.00:0.15 / mixed_ref=1 / me_range=32 / chroma_me=1 / trellis=1 / 8x8dct=1 / cqm=0 / deadzone=21,11 / fast_pskip=1 / chroma_qp_offset=-3 / threads=12 / lookahead_threads=2 / sliced_threads=0 / nr=0 / decimate=1 / interlaced=0 / bluray_compat=0 / constrained_intra=0 / bframes=16 / b_pyramid=2 / b_adapt=2 / b_bias=0 / direct=3 / weightb=1 / open_gop=0 / weightp=2 / keyint=250 / keyint_min=23 / scenecut=40 / intra_refresh=0 / rc_lookahead=50 / rc=crf / mbtree=1 / crf=18.0 / qcomp=0.60 / qpmin=0 / qpmax=69 / qpstep=4 / vbv_maxrate=24000 / vbv_bufsize=24000 / crf_max=0.0 / nal_hrd=none / ip_ratio=1.40 / aq=1:1.00
    
    Audio
    ID                             : 2
    Format                         : AAC
    Format/Info                    : Advanced Audio Codec
    Format profile                 : LC
    Codec ID                       : 40
    Duration                       : 1h 28mn
    Bit rate mode                  : Variable
    Bit rate                       : 213 Kbps
    Maximum bit rate               : 255 Kbps
    Channel(s)                     : 2 channels
    Channel positions              : Front: L R
    Sampling rate                  : 48.0 KHz
    Compression mode               : Lossy
    Stream size                    : 135 MiB (9%)
    


    2 Parts

    || Download & Passwort ||


    Geschützter Bereich - Bedanke dich beim Poster, um den Bereich sehen zu können
    Hier erfährst Du wie Du Dich bedanken kannst oder werde jetzt Premium Mitglied ab einer Spende von 5€ und erhalte sofortigen Zugriff auf den Downloadbereich!

    Weiteres von Naruto Shippuden:
    [Links sind nur für registrierte und aktivierte Nutzer sichtbar. Klicke hier um dich zu registrieren.]
    [Links sind nur für registrierte und aktivierte Nutzer sichtbar. Klicke hier um dich zu registrieren.]
    [Links sind nur für registrierte und aktivierte Nutzer sichtbar. Klicke hier um dich zu registrieren.]
    [Links sind nur für registrierte und aktivierte Nutzer sichtbar. Klicke hier um dich zu registrieren.]
    [Links sind nur für registrierte und aktivierte Nutzer sichtbar. Klicke hier um dich zu registrieren.]
    [Links sind nur für registrierte und aktivierte Nutzer sichtbar. Klicke hier um dich zu registrieren.]
    [Links sind nur für registrierte und aktivierte Nutzer sichtbar. Klicke hier um dich zu registrieren.]

    Geändert von galudo (28. July 2016 um 15:49 Uhr)
    SUPPORT UND REUP ANFRAGEN NUR >> [Links sind nur für registrierte und aktivierte Nutzer sichtbar. Klicke hier um dich zu registrieren.] <<
    Bitte IMMER den Thread-Link mitschicken.

  2. 35 Benutzer sagen Danke:

    Akio (15. January 2016),AKira_Hidaka (11. June 2016),Aluaran (15. May 2015),Alucard1412 (11. February 2016),Blackdragon1702 (27. September 2015),classius (8. January 2016),Cloud Strife (30. August 2015),DarkTerminator (25. March 2016),DeathBeast88 (4. August 2015),dragonking87 (2. August 2015),Ecos (2. May 2016),Flint (23. November 2015),Hollow-Ichigo (6. December 2015),Icke (1. May 2016),IshiFuroito (26. September 2015),JugoBetrugo (17. December 2015),Kodama1989 (1. October 2015),madmax916sps (29. January 2016),MasterTroll (19. March 2016),McZeRo (22. February 2016),midnighter (12. June 2015),MINOTAURUS (9. January 2016),Neyzu (20. July 2015),noizmaker (16. December 2015),Nyarlathothep (16. August 2015),realmadridcf (26. June 2016),Sandy7580 (4. January 2016),sebmori (16. May 2015),Shenra (12. May 2015),shinanhan (4. January 2016),shokinn (10. February 2016),syman8989 (28. July 2016),TheYoAsakura (14. May 2015),Virgel (14. July 2015),Zapzerap (18. August 2015)

Stichworte

Lesezeichen

Berechtigungen

  • Neue Themen erstellen: Nein
  • Themen beantworten: Nein
  • Anhänge hochladen: Nein
  • Beiträge bearbeiten: Nein
  •  

1 2 3 4 5 6 7 8 9 10 11 12 13 14 15 16 17 18 19 20 21 22 23 24 25 26 27 28 29 30 31 32 33 34 35 36 37 38 39 40 41 42 43 44 45 46 47 48 49 50 51 52 53 54 55 56 57 58 59 60 61 62 63 64 65 66 67 68 69 70 71 72 73 74 75 76 77 78 79 80 81 82 83 84 85 86 87 88 89 90 91 92 93 94 95 96 97 98 99 100 101 102 103 104 105 106 107 108 109 110 111 112 113 114 115 116 117 118 119 120 121 122 123 124 125 126 127 128 129 130 131 132 133 134 135 136 137 138 139 140 141 142 143 144 145 146 147 148 149 150 151 152 153 154 155 156 157 158