Ergebnis 1 bis 1 von 1

Thema: Gekijouban Naruto Shippuuden: Road to Ninja [Film 6][JapDub][GerSub][1080p][HDTV]

Dieser Thread wurde noch nicht bewertet. Bewerte ihn doch, wenn er dir gefällt!
  1. #1
    Kami-sama Avatar von galudo
    Registriert seit
    Mar 2015
    Beiträge
    1.369
    Punkte
    25.903
    Errungenschaften:
    TomodachisTagger ProfiHyperaktivSenpaiGang Leader

    Gekijouban Naruto Shippuuden: Road to Ninja [Film 6][JapDub][GerSub][1080p][HDTV]

    Gekijouban Naruto Shippuuden: Road to Ninja
    Road to Ninja: Naruto the Movie
    Naruto Shippuuden Movie 6



    Kurzbeschreibung
    Naruto und Sakura haben beide das Gefühl, als wenn die Welt, in der sie leben, mehr als ungerecht ist. Sakura, die von ihren Eltern genervt ist, hält es allmählich nicht mehr aus. Und auch Naruto merkt, wie arg er seine Eltern eigentlich vermisst. Durch Uchiha Madara passiert es jedoch, dass die beiden in eine Art Paralleluniversum geschickt werden, in der sich alles ins Gegenteil wandelt. Sakura, die nun ohne Eltern lebt, da diese einst das Dorf gerettet haben und sich hierbei geopfert haben und Naruto, der seine Eltern wieder in die Arme schließen kann. Doch hinter der Illusion versteckt sich ein weiterer Gegner, der Konoha bedroht und das Gleichgewicht der Welt auseinander reißen will. Können Naruto und Sakura ihn stoppen und in ihre Welt zurückkehren? Oder wollen sie es überhaupt noch?
    Format: MP4
    Sprache: Japanisch
    Untertitel: Deutsch
    Größe: ~ 2,48 GB
    Dauer: ~ 109 Minuten
    Jahr: 2012
    Video: 1080p
    Source: HDTV
    Subgroup / Releasegroup: Tomo ni Fansubs
    Hoster: Share-Online| Uploaded
    Passwort: siehe unten


    Datei-Info
    Spoiler
    Code:
    General
    Format                         : MPEG-4
    Format profile                 : Base Media
    Codec ID                       : isom
    File size                      : 2.49 GiB
    Duration                       : 1h 49mn
    Overall bit rate mode          : Variable
    Overall bit rate               : 3 238 Kbps
    
    Video
    ID                             : 1
    Format                         : AVC
    Format/Info                    : Advanced Video Codec
    Format profile                 : [email protected]
    Format settings, CABAC         : Yes
    Format settings, ReFrames      : 6 frames
    Codec ID                       : avc1
    Codec ID/Info                  : Advanced Video Coding
    Duration                       : 1h 49mn
    Bit rate                       : 3 022 Kbps
    Maximum bit rate               : 28.0 Mbps
    Width                          : 1 920 pixels
    Height                         : 1 080 pixels
    Display aspect ratio           : 16:9
    Frame rate mode                : Constant
    Frame rate                     : 23.976 fps
    Color space                    : YUV
    Chroma subsampling             : 4:2:0
    Bit depth                      : 8 bits
    Scan type                      : Progressive
    Bits/(Pixel*Frame)             : 0.061
    Stream size                    : 2.32 GiB (93%)
    Title                          : Video
    Writing library                : x264 core 136 r2348+704+51 d1baef6 tMod [[email protected] X86]
    Encoding settings              : cabac=1 / ref=6 / deblock=1:1:1 / analyse=0x3:0x113 / me=umh / subme=9 / psy=1 / fade_compensate=0.00 / psy_rd=1.00:0.15 / mixed_ref=1 / me_range=32 / chroma_me=1 / trellis=1 / 8x8dct=1 / cqm=0 / deadzone=21,11 / fast_pskip=1 / chroma_qp_offset=-3 / threads=12 / lookahead_threads=3 / sliced_threads=0 / nr=0 / decimate=1 / interlaced=0 / bluray_compat=0 / constrained_intra=0 / fgo=0 / bframes=16 / b_pyramid=2 / b_adapt=2 / b_bias=0 / direct=3 / weightb=1 / open_gop=0 / weightp=2 / keyint=250 / keyint_min=23 / scenecut=40 / intra_refresh=0 / rc_lookahead=50 / rc=crf / mbtree=1 / crf=18.0000 / qcomp=0.60 / qpmin=0:0:0 / qpmax=69:69:69 / qpstep=4 / vbv_maxrate=24000 / vbv_bufsize=24000 / crf_max=0.0 / nal_hrd=none / ip_ratio=1.40 / aq=1:1.00 / aq-sensitivity=10.00 / aq-factor=1.00:1.00:1.00 / aq2=0 / aq3=0
    
    Audio
    ID                             : 2
    Format                         : AAC
    Format/Info                    : Advanced Audio Codec
    Format profile                 : LC
    Codec ID                       : 40
    Duration                       : 1h 49mn
    Bit rate mode                  : Variable
    Bit rate                       : 212 Kbps
    Maximum bit rate               : 256 Kbps
    Channel(s)                     : 2 channels
    Channel positions              : Front: L R
    Sampling rate                  : 48.0 KHz
    Compression mode               : Lossy
    Stream size                    : 167 MiB (7%)
    Language                       : German
    


    3 Parts

    || Download & Passwort ||


    Geschützter Bereich - Bedanke dich beim Poster, um den Bereich sehen zu können
    Hier erfährst Du wie Du Dich bedanken kannst oder werde jetzt Premium Mitglied ab einer Spende von 5€ und erhalte sofortigen Zugriff auf den Downloadbereich!

    Weiteres von Naruto Shippuden:
    [Links sind nur für registrierte und aktivierte Nutzer sichtbar. Klicke hier um dich zu registrieren.]
    [Links sind nur für registrierte und aktivierte Nutzer sichtbar. Klicke hier um dich zu registrieren.]
    [Links sind nur für registrierte und aktivierte Nutzer sichtbar. Klicke hier um dich zu registrieren.]
    [Links sind nur für registrierte und aktivierte Nutzer sichtbar. Klicke hier um dich zu registrieren.]
    [Links sind nur für registrierte und aktivierte Nutzer sichtbar. Klicke hier um dich zu registrieren.]
    [Links sind nur für registrierte und aktivierte Nutzer sichtbar. Klicke hier um dich zu registrieren.]

    Geändert von galudo (28. July 2016 um 15:50 Uhr)
    SUPPORT UND REUP ANFRAGEN NUR >> [Links sind nur für registrierte und aktivierte Nutzer sichtbar. Klicke hier um dich zu registrieren.] <<
    Bitte IMMER den Thread-Link mitschicken.

  2. 54 Benutzer sagen Danke:

    Anzeigen

    $$conan$$ (22. November 2016),Akio (15. January 2016),AKira_Hidaka (11. June 2016),Aluaran (15. May 2015),Alucard1412 (11. February 2016),Azuya (20. June 2015),classius (8. January 2016),Cloud Strife (30. August 2015),cob92 (16. September 2015),Dall (14. September 2015),DarkTerminator (25. March 2016),DeathBeast88 (12. May 2015),Dendara (29. September 2016),dionys (9. July 2016),Dipack (19. June 2016),dragonking87 (2. August 2015),Ecos (2. May 2016),EmreWest (15. June 2015),Flint (23. November 2015),Haxz0r (28. July 2015),Hobbitgraf (12. September 2015),Hollow-Ichigo (6. December 2015),Icke (1. May 2016),Ignasum (16. May 2015),IRazziCz (4. May 2016),IshiFuroito (26. September 2015),JugoBetrugo (17. December 2015),Kazuma (18. November 2015),killer7977 (28. June 2015),Kodama1989 (1. October 2015),Kurzey (5. September 2015),madmax916sps (29. January 2016),MasterTroll (19. March 2016),Memati53 (23. September 2015),Mightyberg (30. October 2016),MJMax (21. July 2015),Nexus777 (2. September 2015),Neyzu (20. July 2015),noizmaker (16. December 2015),Nyarlathothep (16. August 2015),prinzvegeta (3. December 2015),realmadridcf (26. June 2016),Sandy7580 (4. January 2016),sebmori (16. May 2015),Shenra (12. May 2015),shokinn (10. February 2016),showtekia (8. August 2015),Sildurias (1. November 2015),syman8989 (28. July 2016),TheYoAsakura (13. May 2015),VatosLocos (30. August 2015),Virgel (14. July 2015),Wölfchen (6. July 2016),Zapzerap (18. August 2015)

Stichworte

Lesezeichen

Berechtigungen

  • Neue Themen erstellen: Nein
  • Themen beantworten: Nein
  • Anhänge hochladen: Nein
  • Beiträge bearbeiten: Nein
  •  

1 2 3 4 5 6 7 8 9 10 11 12 13 14 15 16 17 18 19 20 21 22 23 24 25 26 27 28 29 30 31 32 33 34 35 36 37 38 39 40 41 42 43 44 45 46 47 48 49 50 51 52 53 54 55 56 57 58 59 60 61 62 63 64 65 66 67 68 69 70 71 72 73 74 75 76 77 78 79 80 81 82 83 84 85 86 87 88 89 90 91 92 93 94 95 96 97 98 99 100 101 102 103 104 105 106 107 108 109 110 111 112 113 114 115 116 117 118 119 120 121 122 123 124 125 126 127 128 129 130 131 132 133 134 135 136 137 138 139 140 141 142 143 144 145 146 147 148 149 150 151 152 153 154 155 156 157 158