Ergebnis 1 bis 1 von 1

Thema: Gin'iro no Kami no Agito [Ger-Jap-Dub][Ger-Sub][720p/1080p][BluRay] - AST4u

Dieser Thread wurde noch nicht bewertet. Bewerte ihn doch, wenn er dir gefällt!
  1. #1
    United we Stand Avatar von 00Ryuji00
    Registriert seit
    Oct 2012
    Beiträge
    3.902
    Punkte
    100.092
    Errungenschaften:
    TomodachisGang LeaderHikikomoriTagger Amateur50000 Erfahrungspunkte

    Gin'iro no Kami no Agito [Ger-Jap-Dub][Ger-Sub][720p/1080p][BluRay] - AST4u


    Gin'iro no Kami no Agito
    銀色の髪のアギト
    Origin: Spirits of the Past






    Kurzbeschreibung:
    Zitat Zitat von AniSearch.com
    Durch fehlgeschlagene Genmanipulationen wurde die Umwelt der Erde verwüstet. Die Menschen flüchteten in den Tiefschlaf. 300 Jahre später befinden sich die Menschen im Kampf mit „dem Wald“ oder sind von ihm abhängig. Der Junge Agito betritt eines Tages einen verbotenen Bereich, in dem sich eine leuchtende Maschine befindet. In dieser schläft das Mädchen Toola seit nun fast 300 Jahren. Toola hat eine Mission zu erfüllen, nämlich die Zivilisation wiederherzustellen. Um dieses Ziel zu erreichen, schließt sie sich mit den finsteren Shunack zusammen, der mit seinen Truppen gegen den Wald kämpft. Bald wird aber klar, dass Shunack seine eigenen Pläne verfolgt. Um Toola zu retten, geht Agito einen Bund mit dem Wald ein und erhält so verbotene Kräfte...


    Spieldauer: 90min
    Genre: Abenteuer
    Nebengenres: Abenteuer, Action, Drama, Fantasy, Romanze, Scifi
    Jahr: 2006
    Sprache: Deutsch, Japanisch
    Untertitel: Deutsch
    Größe pro Folge: ~3.16 GiB ~6.36 GiB
    Episodenanzahl: 1/1
    Format: MKV
    Auflösung: 720p (16:9), 1080p (16:9)
    Videocodec: x264 (AVC)
    Audiocodec: AC-3
    Releasegruppe: AST4u
    Hoster: Share-Online, Uploaded


    MediaInfo
    720p
    Code:
    
    Format                                   : Matroska
    Format version                           : Version 2
    File size                                : 3.16 GiB
    Duration                                 : 1h 34mn
    Overall bit rate mode                    : Variable
    Overall bit rate                         : 4 792 Kbps
    Movie name                               : ORIGIN_-_SPIRITS_OF_THE_PAST_1.Title21
    Encoded date                             : UTC 2015-05-19 16:28:39
    Writing application                      : DVDFab 9.2.0.0
    Writing library                          : libebml v0.7.8 + libmatroska v0.8.1
    
    Video
    ID                                       : 1
    Format                                   : AVC
    Format/Info                              : Advanced Video Codec
    Format profile                           : [email protected]
    Format settings, CABAC                   : Yes
    Format settings, ReFrames                : 2 frames
    Codec ID                                 : V_MPEG4/ISO/AVC
    Duration                                 : 1h 34mn
    Bit rate mode                            : Variable
    Bit rate                                 : 3 801 Kbps
    Maximum bit rate                         : 6 000 Kbps
    Width                                    : 1 280 pixels
    Height                                   : 720 pixels
    Display aspect ratio                     : 16:9
    Frame rate mode                          : Constant
    Frame rate                               : 23.976 fps
    Color space                              : YUV
    Chroma subsampling                       : 4:2:0
    Bit depth                                : 8 bits
    Scan type                                : Progressive
    Bits/(Pixel*Frame)                       : 0.172
    Stream size                              : 2.50 GiB (79%)
    Default                                  : Yes
    Forced                                   : No
    
    Audio #1
    ID                                       : 2
    Format                                   : AC-3
    Format/Info                              : Audio Coding 3
    Mode extension                           : CM (complete main)
    Format settings, Endianness              : Big
    Codec ID                                 : A_AC3
    Duration                                 : 1h 34mn
    Bit rate mode                            : Constant
    Bit rate                                 : 448 Kbps
    Channel(s)                               : 6 channels
    Channel positions                        : Front: L C R, Side: L R, LFE
    Sampling rate                            : 48.0 KHz
    Compression mode                         : Lossy
    Stream size                              : 302 MiB (9%)
    Language                                 : German
    Default                                  : Yes
    Forced                                   : No
    
    Audio #2
    ID                                       : 3
    Format                                   : AC-3
    Format/Info                              : Audio Coding 3
    Mode extension                           : CM (complete main)
    Format settings, Endianness              : Big
    Codec ID                                 : A_AC3
    Duration                                 : 1h 34mn
    Bit rate mode                            : Constant
    Bit rate                                 : 448 Kbps
    Channel(s)                               : 6 channels
    Channel positions                        : Front: L C R, Side: L R, LFE
    Sampling rate                            : 48.0 KHz
    Compression mode                         : Lossy
    Stream size                              : 302 MiB (9%)
    Language                                 : Japanese
    Default                                  : No
    Forced                                   : No
    
    Text
    ID                                       : 4
    Format                                   : PGS
    Codec ID                                 : S_HDMV/PGS
    Codec ID/Info                            : Picture based subtitle format used on BDs/HD-DVDs
    Language                                 : German
    Default                                  : No
    Forced                                   : No
    
    Menu
    00:00:00.000                             : en:(01)00:00:00:000
    00:09:33.281                             : en:(02)00:09:33:281
    00:20:05.370                             : en:(03)00:20:05:370
    00:29:09.831                             : en:(04)00:29:09:831
    00:38:11.330                             : en:(05)00:38:11:330
    00:46:51.809                             : en:(06)00:46:51:809
    00:58:01.561                             : en:(07)00:58:01:561
    01:08:54.338                             : en:(08)01:08:54:338
    01:19:51.077                             : en:(09)01:19:51:077
    01:28:09.367                             : en:(10)01:28:09:367
    
    


    1080p
    Code:
    
    Format                                   : Matroska
    Format version                           : Version 2
    File size                                : 6.36 GiB
    Duration                                 : 1h 34mn
    Overall bit rate mode                    : Variable
    Overall bit rate                         : 9 657 Kbps
    Movie name                               : ORIGIN_-_SPIRITS_OF_THE_PAST.Title21
    Encoded date                             : UTC 2015-05-19 16:15:28
    Writing application                      : DVDFab 9.2.0.0
    Writing library                          : libebml v0.7.8 + libmatroska v0.8.1
    
    Video
    ID                                       : 1
    Format                                   : AVC
    Format/Info                              : Advanced Video Codec
    Format profile                           : [email protected]
    Format settings, CABAC                   : Yes
    Format settings, ReFrames                : 2 frames
    Codec ID                                 : V_MPEG4/ISO/AVC
    Duration                                 : 1h 34mn
    Bit rate mode                            : Variable
    Bit rate                                 : 8 568 Kbps
    Maximum bit rate                         : 13.5 Mbps
    Width                                    : 1 920 pixels
    Height                                   : 1 080 pixels
    Display aspect ratio                     : 16:9
    Frame rate mode                          : Constant
    Frame rate                               : 23.976 fps
    Color space                              : YUV
    Chroma subsampling                       : 4:2:0
    Bit depth                                : 8 bits
    Scan type                                : Progressive
    Bits/(Pixel*Frame)                       : 0.172
    Stream size                              : 5.64 GiB (89%)
    Default                                  : Yes
    Forced                                   : No
    
    Audio #1
    ID                                       : 2
    Format                                   : AC-3
    Format/Info                              : Audio Coding 3
    Mode extension                           : CM (complete main)
    Format settings, Endianness              : Big
    Codec ID                                 : A_AC3
    Duration                                 : 1h 34mn
    Bit rate mode                            : Constant
    Bit rate                                 : 448 Kbps
    Channel(s)                               : 6 channels
    Channel positions                        : Front: L C R, Side: L R, LFE
    Sampling rate                            : 48.0 KHz
    Compression mode                         : Lossy
    Stream size                              : 302 MiB (5%)
    Language                                 : German
    Default                                  : Yes
    Forced                                   : No
    
    Audio #2
    ID                                       : 3
    Format                                   : AC-3
    Format/Info                              : Audio Coding 3
    Mode extension                           : CM (complete main)
    Format settings, Endianness              : Big
    Codec ID                                 : A_AC3
    Duration                                 : 1h 34mn
    Bit rate mode                            : Constant
    Bit rate                                 : 448 Kbps
    Channel(s)                               : 6 channels
    Channel positions                        : Front: L C R, Side: L R, LFE
    Sampling rate                            : 48.0 KHz
    Compression mode                         : Lossy
    Stream size                              : 302 MiB (5%)
    Language                                 : Japanese
    Default                                  : No
    Forced                                   : No
    
    Text
    ID                                       : 4
    Format                                   : PGS
    Codec ID                                 : S_HDMV/PGS
    Codec ID/Info                            : Picture based subtitle format used on BDs/HD-DVDs
    Language                                 : German
    Default                                  : No
    Forced                                   : No
    
    Menu
    00:00:00.000                             : en:(01)00:00:00:000
    00:09:33.281                             : en:(02)00:09:33:281
    00:20:05.370                             : en:(03)00:20:05:370
    00:29:09.831                             : en:(04)00:29:09:831
    00:38:11.330                             : en:(05)00:38:11:330
    00:46:51.809                             : en:(06)00:46:51:809
    00:58:01.561                             : en:(07)00:58:01:561
    01:08:54.338                             : en:(08)01:08:54:338
    01:19:51.077                             : en:(09)01:19:51:077
    01:28:09.367                             : en:(10)01:28:09:367
    
    






    Geschützter Bereich - Bedanke dich beim Poster, um den Bereich sehen zu können
    Hier erfährst Du wie Du Dich bedanken kannst oder werde jetzt Premium Mitglied ab einer Spende von 5€ und erhalte sofortigen Zugriff auf den Downloadbereich!

    [Links sind nur für registrierte und aktivierte Nutzer sichtbar. Klicke hier um dich zu registrieren.]
    !!!Alle Anliegen bezüglich Uploads werden nur mit direktem Threadlink zum Angebot bearbeitet!!!

    Re-Uploadanfragen nur per PN - Ihr könnt mir auch Listen schicken

    Re-Uploads folgen nach Anfrage meist am Wochenende

    [Links sind nur für registrierte und aktivierte Nutzer sichtbar. Klicke hier um dich zu registrieren.] | [Links sind nur für registrierte und aktivierte Nutzer sichtbar. Klicke hier um dich zu registrieren.] | >[Links sind nur für registrierte und aktivierte Nutzer sichtbar. Klicke hier um dich zu registrieren.]<
    [Links sind nur für registrierte und aktivierte Nutzer sichtbar. Klicke hier um dich zu registrieren.]

  2. 38 Benutzer sagen Danke:

    0815Reset (30. October 2016),Angel86 (31. July 2016),Asuka Langley (1. August 2016),Axel87 (1. October 2016),Baschti1989 (29. July 2016),Cande (28. July 2016),Conopas (29. July 2016),cooliero (2. September 2016),Cy_Baer (21. August 2016),Donquixote (6. August 2016),dragonking87 (30. July 2016),Frag0042 (30. July 2016),galudo (28. July 2016),GiftGasBaer (3. December 2016),Griever (28. July 2016),hundekuchen (30. July 2016),Ibanezar (14. August 2016),icloudmax (5. October 2016),lucky_mer (29. July 2016),Lupino (28. July 2016),Max13493 (8. September 2016),McFly4711 (9. August 2016),MCRFG (30. July 2016),midnighter (30. July 2016),nabou (3. August 2016),norman (20. August 2016),NUVAKWAHU (1. August 2016),PaDDyHaase (28. July 2016),Praxas (14. August 2016),Rheijaa (31. July 2016),risobp (18. September 2016),rofler86 (30. August 2016),Ronae (1. August 2016),setugen no ao (29. July 2016),Skully_88 (2. October 2016),Spotix (16. September 2016),Superzorro (8. September 2016),zimbo201174 (29. July 2016)

Lesezeichen

Berechtigungen

  • Neue Themen erstellen: Nein
  • Themen beantworten: Nein
  • Anhänge hochladen: Nein
  • Beiträge bearbeiten: Nein
  •  

1 2 3 4 5 6 7 8 9 10 11 12 13 14 15 16 17 18 19 20 21 22 23 24 25 26 27 28 29 30 31 32 33 34 35 36 37 38 39 40 41 42 43 44 45 46 47 48 49 50 51 52 53 54 55 56 57 58 59 60 61 62 63 64 65 66 67 68 69 70 71 72 73 74 75 76 77 78 79 80 81 82 83 84 85 86 87 88 89 90 91 92 93 94 95 96 97 98 99 100 101 102 103 104 105 106 107 108 109 110 111 112 113 114 115 116 117 118 119 120 121 122 123 124 125 126 127 128 129 130 131 132 133 134 135 136 137 138 139 140 141 142 143 144 145 146 147 148 149 150 151 152 153 154 155 156 157 158