Ergebnis 1 bis 1 von 1

Thema: Golgo 13 - The Professional [Ger-Jap-Dub][432p][DVDRip]-Ast4u

Dieser Thread wurde noch nicht bewertet. Bewerte ihn doch, wenn er dir gefällt!
  1. #1
    United we Stand Avatar von 00Ryuji00
    Registriert seit
    Oct 2012
    Beiträge
    3.902
    Punkte
    100.019
    Errungenschaften:
    TomodachisGang LeaderHikikomoriTagger Amateur50000 Erfahrungspunkte

    Golgo 13 - The Professional [Ger-Jap-Dub][432p][DVDRip]-Ast4u


    Golgo 13
    ゴルゴ13
    Golgo 13: The Professional
    Golgo 13 - The Professional






    Kurzbeschreibung:
    Zitat Zitat von AniSearch.com
    Golgo 13 ist der gefürchtetste Auftragskiller der Welt. Für den richtigen Preis erledigt er jede Zielperson - garantiert! Nach dem Mordanschlag auf den Sohn des US Industrie - Tycoons Leonard Dawson, einem der mächtigsten Männer der Welt, wird der Jäger plötzlich selbst zum Gejagten! Nicht nur das FBI, die CIA und sogar eine Spezialeinheit der US Armee heften sich ihm nun an die Fersen, auch ehemalige Verbündete, sowie der KGB und die Mafia wollen ihm jetzt an den Kragen...


    Spieldauer: 90min
    Genre: Action
    Nebengenres: Action, Drama, Ecchi, Männlich, Thriller, Volljährig, Übermäßige Gewaltdarstellung
    Jahr: 1983
    Sprache: Deutsch, Japanisch
    Größe pro Folge: ~1.54 GiB
    Episodenanzahl: 1/1
    Format: MKV
    Auflösung: 432p (16:9)
    Videocodec: x264 (AVC)
    Audiocodec: AC-3
    Releasegruppe: Ast4u
    Hoster: Share-Online, Uploaded


    MediaInfo
    Code:
    
    Format                                   : Matroska
    Format version                           : Version 1
    File size                                : 1.54 GiB
    Duration                                 : 1h 29mn
    Overall bit rate                         : 2 457 Kbps
    Encoded date                             : UTC 2013-10-29 21:36:53
    Writing application                      : VirtualDubMod 1.5.10.2 (build 2542/release)
    Writing library                          : libebml-0.7.5 & libmatroska-0.7.7
    
    Video
    ID                                       : 1
    Format                                   : AVC
    Format/Info                              : Advanced Video Codec
    Format profile                           : [email protected]
    Format settings, CABAC                   : Yes
    Format settings, ReFrames                : 2 frames
    Codec ID                                 : V_MS/VFW/FOURCC / H264
    Duration                                 : 1h 29mn
    Bit rate                                 : 1 553 Kbps
    Width                                    : 768 pixels
    Height                                   : 432 pixels
    Display aspect ratio                     : 16:9
    Frame rate mode                          : Constant
    Frame rate                               : 25.000 fps
    Color space                              : YUV
    Chroma subsampling                       : 4:2:0
    Bit depth                                : 8 bits
    Scan type                                : Progressive
    Bits/(Pixel*Frame)                       : 0.187
    Stream size                              : 971 MiB (62%)
    Writing library                          : x264 core 58 svn-736bm
    Encoding settings                        : cabac=1 / ref=1 / deblock=1:0:0 / analyse=0x1:0x131 / me=hex / subme=5 / brdo=0 / mixed_ref=0 / me_range=16 / chroma_me=1 / trellis=1 / 8x8dct=0 / cqm=0 / deadzone=21,11 / chroma_qp_offset=0 / threads=8 / nr=0 / decimate=1 / mbaff=0 / bframes=2 / b_pyramid=0 / b_adapt=1 / b_bias=0 / direct=1 / wpredb=1 / bime=0 / keyint=250 / keyint_min=25 / scenecut=40(pre) / rc=2pass / bitrate=1553 / ratetol=1.0 / rceq='blurCplx^(1-qComp)' / qcomp=0.60 / qpmin=10 / qpmax=51 / qpstep=4 / cplxblur=20.0 / qblur=0.5 / ip_ratio=1.40 / pb_ratio=1.30
    Language                                 : English
    Default                                  : Yes
    Forced                                   : No
    
    Audio #1
    ID                                       : 2
    Format                                   : AC-3
    Format/Info                              : Audio Coding 3
    Mode extension                           : CM (complete main)
    Format settings, Endianness              : Big
    Codec ID                                 : A_AC3
    Duration                                 : 1h 29mn
    Bit rate mode                            : Constant
    Bit rate                                 : 448 Kbps
    Channel(s)                               : 6 channels
    Channel positions                        : Front: L C R, Side: L R, LFE
    Sampling rate                            : 48.0 KHz
    Compression mode                         : Lossy
    Stream size                              : 288 MiB (18%)
    Language                                 : English
    Default                                  : Yes
    Forced                                   : No
    
    Audio #2
    ID                                       : 3
    Format                                   : AC-3
    Format/Info                              : Audio Coding 3
    Mode extension                           : CM (complete main)
    Format settings, Endianness              : Big
    Codec ID                                 : A_AC3
    Duration                                 : 1h 29mn
    Bit rate mode                            : Constant
    Bit rate                                 : 448 Kbps
    Channel(s)                               : 6 channels
    Channel positions                        : Front: L C R, Side: L R, LFE
    Sampling rate                            : 48.0 KHz
    Compression mode                         : Lossy
    Stream size                              : 288 MiB (18%)
    Language                                 : English
    Default                                  : No
    Forced                                   : No
    
    Menu
    00:00:00.000                             : Ch. 01 @ 00:00:00
    00:05:16.800                             : Ch. 02 @ 00:05:16
    00:15:44.160                             : Ch. 03 @ 00:15:44
    00:25:17.760                             : Ch. 04 @ 00:25:17
    00:35:48.000                             : Ch. 05 @ 00:35:48
    00:45:26.880                             : Ch. 06 @ 00:45:26
    00:56:32.160                             : Ch. 07 @ 00:56:32
    01:07:24.480                             : Ch. 08 @ 01:07:24
    01:18:24.960                             : Ch. 09 @ 01:18:24
    01:27:19.200                             : Ch. 10 @ 01:27:19
    
    




    Geschützter Bereich - Bedanke dich beim Poster, um den Bereich sehen zu können
    Hier erfährst Du wie Du Dich bedanken kannst oder werde jetzt Premium Mitglied ab einer Spende von 5€ und erhalte sofortigen Zugriff auf den Downloadbereich!

    [Links sind nur für registrierte und aktivierte Nutzer sichtbar. Klicke hier um dich zu registrieren.]
    !!!Alle Anliegen bezüglich Uploads werden nur mit direktem Threadlink zum Angebot bearbeitet!!!

    Re-Uploadanfragen nur per PN - Ihr könnt mir auch Listen schicken

    Re-Uploads erfolgen meist innerhalb 24h, kann aber auch bis zu 7 Tage dauern

    [Links sind nur für registrierte und aktivierte Nutzer sichtbar. Klicke hier um dich zu registrieren.] | [Links sind nur für registrierte und aktivierte Nutzer sichtbar. Klicke hier um dich zu registrieren.] | >[Links sind nur für registrierte und aktivierte Nutzer sichtbar. Klicke hier um dich zu registrieren.]<
    [Links sind nur für registrierte und aktivierte Nutzer sichtbar. Klicke hier um dich zu registrieren.]

  2. 15 Benutzer sagen Danke:

    bersom (9. August 2016),Conopas (22. January 2016),cooliero (15. January 2016),dacheff (15. January 2016),Dreieckhard (13. January 2016),gerdhanse (6. March 2016),kadaj93 (19. June 2016),LordMecha (17. May 2016),midnighter (9. February 2016),NanaNo7 (23. January 2016),nemo (1. July 2016),nyabi (18. April 2016),phenon (13. January 2016),takitoko81 (2. February 2016),wasweisich (22. January 2016)

Lesezeichen

Berechtigungen

  • Neue Themen erstellen: Nein
  • Themen beantworten: Nein
  • Anhänge hochladen: Nein
  • Beiträge bearbeiten: Nein
  •  

1 2 3 4 5 6 7 8 9 10 11 12 13 14 15 16 17 18 19 20 21 22 23 24 25 26 27 28 29 30 31 32 33 34 35 36 37 38 39 40 41 42 43 44 45 46 47 48 49 50 51 52 53 54 55 56 57 58 59 60 61 62 63 64 65 66 67 68 69 70 71 72 73 74 75 76 77 78 79 80 81 82 83 84 85 86 87 88 89 90 91 92 93 94 95 96 97 98 99 100 101 102 103 104 105 106 107 108 109 110 111 112 113 114 115 116 117 118 119 120 121 122 123 124 125 126 127 128 129 130 131 132 133 134 135 136 137 138 139 140 141 142 143 144 145 146 147 148 149 150 151 152 153 154 155 156 157 158