Ergebnis 1 bis 2 von 2

Thema: Inuyasha Movie 4: Guren no Houraijima [Ger-Eng-Jap-Dub][Ger-Eng-Sub][1080p][BluRay] - WMD

Dieser Thread wurde noch nicht bewertet. Bewerte ihn doch, wenn er dir gefällt!
  1. #1
    Kami-sama Avatar von galudo
    Registriert seit
    Mar 2015
    Beiträge
    1.370
    Punkte
    25.951
    Errungenschaften:
    TomodachisTagger ProfiHyperaktivSenpaiGang Leader

    Inuyasha Movie 4: Guren no Houraijima [Ger-Eng-Jap-Dub][Ger-Eng-Sub][1080p][BluRay] - WMD

    Inuyasha: Guren no Houraijima
    犬夜叉 紅蓮の蓬莱島
    Fire on the Mystic Island
    InuYasha - The Movie 4: Fire on the Mystic Island



    Kurzbeschreibung
    Die geheimnisvolle Insel von Houraijima ist nach 50 Jahren wieder erschienen und damit hat der Angriff von vier Göttern, die Shitoushin, begonnen, die ein Auge auf die Kraft geworfen haben, die die Insel beschützt. Jetzt kommt es auf Inuyasha und seine Freunde an, zusammen mit Sesshoumaru einen Weg zu finden, die mächtigen Shitoushin zu besiegen.
    Format: MKV
    Sprache: Deutsch, Englisch, Japanisch
    Untertitel: Deutsch, Englisch (SoftSub)
    Genre: Abenteuer, Action, Drama, Fantasy, Fighting-Shounen, Komödie, Romanze
    Größe: 8,56 GB
    Dauer: ~ 86 Minuten
    Jahr: 2004
    Video: 1920x1040p (1.85:1)
    Source: BluRay
    Subgroup / Releasegroup: WorMac

    Hoster: Share-Online | Uploaded
    Passwort: siehe unten
    Onlinestatus:


    Datei-Info
    Spoiler
    Code:
    General
    Unique ID                      : 182722631353381637660979957824800177300 (0x89771945FB0F4884A05A0495E1043C94)
    Complete name                  : Inuyasha Movie 4 Ger-Eng-Jap-Dub Ger-Eng-Sub 1080P Wor Mac`S Download`S.mkv
    Format                         : Matroska
    Format version                 : Version 2
    File size                      : 8.56 GiB
    Duration                       : 1h 28mn
    Overall bit rate mode          : Variable
    Overall bit rate               : 13.9 Mbps
    Movie name                     : Inuyasha Movie 4 Ger-Eng-Jap-Dub Ger-Eng-Sub 1080P Wor Mac`S Download`S
    Encoded date                   : UTC 2013-06-27 18:30:16
    Writing application            : mkvmerge v4.4.0 ('Die Wiederkehr') gebaut am Oct 31 2010 21:52:48
    Writing library                : libebml v1.0.0 + libmatroska v1.0.0
    
    Video
    ID                             : 1
    Format                         : AVC
    Format/Info                    : Advanced Video Codec
    Format profile                 : [email protected]
    Format settings, CABAC         : Yes
    Format settings, ReFrames      : 16 frames
    Muxing mode                    : Header stripping
    Codec ID                       : V_MPEG4/ISO/AVC
    Duration                       : 1h 28mn
    Width                          : 1 920 pixels
    Height                         : 1 040 pixels
    Display aspect ratio           : 1.85:1
    Frame rate mode                : Constant
    Frame rate                     : 29.970 fps
    Color space                    : YUV
    Chroma subsampling             : 4:2:0
    Bit depth                      : 8 bits
    Scan type                      : Progressive
    Title                          : Inuyasha Movie 4 Fire on the Mystic Island! 1080P
    Writing library                : x264 core 130 r2273 b3065e6
    Encoding settings              : cabac=1 / ref=16 / deblock=1:1:1 / analyse=0x3:0x133 / me=umh / subme=8 / psy=1 / psy_rd=1.00:0.00 / mixed_ref=1 / me_range=32 / chroma_me=1 / trellis=2 / 8x8dct=1 / cqm=0 / deadzone=21,11 / fast_pskip=0 / chroma_qp_offset=-2 / threads=12 / lookahead_threads=6 / sliced_threads=0 / nr=0 / decimate=0 / interlaced=0 / bluray_compat=0 / constrained_intra=0 / bframes=16 / b_pyramid=2 / b_adapt=2 / b_bias=0 / direct=3 / weightb=1 / open_gop=0 / weightp=2 / keyint=250 / keyint_min=25 / scenecut=40 / intra_refresh=0 / rc=crf / mbtree=0 / crf=18.0 / qcomp=0.80 / qpmin=0 / qpmax=69 / qpstep=4 / ip_ratio=1.40 / pb_ratio=1.30 / aq=2:1.30
    Language                       : German
    Default                        : Yes
    Forced                         : No
    
    Audio #1
    ID                             : 2
    Format                         : DTS
    Format/Info                    : Digital Theater Systems
    Mode                           : 16
    Format settings, Endianness    : Big
    Muxing mode                    : Header stripping
    Codec ID                       : A_DTS
    Duration                       : 1h 28mn
    Bit rate mode                  : Constant
    Bit rate                       : 755 Kbps
    Channel(s)                     : 6 channels
    Channel positions              : Front: L C R, Side: L R, LFE
    Sampling rate                  : 48.0 KHz
    Bit depth                      : 24 bits
    Compression mode               : Lossy
    Stream size                    : 476 MiB (5%)
    Title                          : DTS 5.1
    Language                       : German
    Default                        : Yes
    Forced                         : No
    
    Audio #2
    ID                             : 3
    Format                         : DTS
    Format/Info                    : Digital Theater Systems
    Format profile                 : MA / Core
    Mode                           : 16
    Format settings, Endianness    : Big
    Muxing mode                    : Header stripping
    Codec ID                       : A_DTS
    Duration                       : 1h 28mn
    Bit rate mode                  : Variable
    Bit rate                       : Unknown / 1 509 Kbps
    Channel(s)                     : 6 channels
    Channel positions              : Front: L C R, Side: L R, LFE
    Sampling rate                  : 48.0 KHz
    Bit depth                      : 16 bits
    Compression mode               : Lossless / Lossy
    Title                          : DTS 5.1
    Language                       : English
    Default                        : No
    Forced                         : No
    
    Audio #3
    ID                             : 4
    Format                         : DTS
    Format/Info                    : Digital Theater Systems
    Format profile                 : MA / Core
    Mode                           : 16
    Format settings, Endianness    : Big
    Muxing mode                    : Header stripping
    Codec ID                       : A_DTS
    Duration                       : 1h 28mn
    Bit rate mode                  : Variable
    Bit rate                       : Unknown / 1 509 Kbps
    Channel(s)                     : 6 channels
    Channel positions              : Front: L C R, Side: L R, LFE
    Sampling rate                  : 48.0 KHz
    Bit depth                      : 16 bits
    Compression mode               : Lossless / Lossy
    Title                          : DTS 5.1
    Language                       : Japanese
    Default                        : No
    Forced                         : No
    
    Audio #4
    ID                             : 5
    Format                         : AC-3
    Format/Info                    : Audio Coding 3
    Mode extension                 : CM (complete main)
    Format settings, Endianness    : Big
    Muxing mode                    : Header stripping
    Codec ID                       : A_AC3
    Duration                       : 1h 28mn
    Bit rate mode                  : Constant
    Bit rate                       : 192 Kbps
    Channel(s)                     : 2 channels
    Channel positions              : Front: L R
    Sampling rate                  : 48.0 KHz
    Compression mode               : Lossy
    Stream size                    : 121 MiB (1%)
    Title                          : AC3 2.0 Deutscher Audio Kommentar!
    Language                       : German
    Default                        : No
    Forced                         : No
    
    Text #1
    ID                             : 6
    Format                         : VobSub
    Muxing mode                    : zlib
    Codec ID                       : S_VOBSUB
    Codec ID/Info                  : Picture based subtitle format used on DVDs
    Title                          : Forced-Sub
    Language                       : German
    Default                        : Yes
    Forced                         : No
    
    Text #2
    ID                             : 7
    Format                         : VobSub
    Muxing mode                    : zlib
    Codec ID                       : S_VOBSUB
    Codec ID/Info                  : Picture based subtitle format used on DVDs
    Title                          : Anrede Übersetzungs-Sub
    Language                       : German
    Default                        : No
    Forced                         : No
    
    Text #3
    ID                             : 8
    Format                         : VobSub
    Muxing mode                    : zlib
    Codec ID                       : S_VOBSUB
    Codec ID/Info                  : Picture based subtitle format used on DVDs
    Title                          : Full-Sub
    Language                       : German
    Default                        : No
    Forced                         : No
    
    Text #4
    ID                             : 9
    Format                         : PGS
    Muxing mode                    : zlib
    Codec ID                       : S_HDMV/PGS
    Codec ID/Info                  : Picture based subtitle format used on BDs/HD-DVDs
    Title                          : Full-Sub
    Language                       : English
    Default                        : No
    Forced                         : No


    9 Parts


    || Download & Passwort ||


    Geschützter Bereich - Bedanke dich beim Poster, um den Bereich sehen zu können
    Hier erfährst Du wie Du Dich bedanken kannst oder werde jetzt Premium Mitglied ab einer Spende von 5€ und erhalte sofortigen Zugriff auf den Downloadbereich!

    Inuyasha Movie 1:
    [Links sind nur für registrierte und aktivierte Nutzer sichtbar. Klicke hier um dich zu registrieren.]
    Inuyasha Movie 2:
    [Links sind nur für registrierte und aktivierte Nutzer sichtbar. Klicke hier um dich zu registrieren.]
    Inuyasha Movie 3:
    [Links sind nur für registrierte und aktivierte Nutzer sichtbar. Klicke hier um dich zu registrieren.]
    Geändert von galudo (21. July 2016 um 20:29 Uhr)
    SUPPORT UND REUP ANFRAGEN NUR >> [Links sind nur für registrierte und aktivierte Nutzer sichtbar. Klicke hier um dich zu registrieren.] <<
    Bitte IMMER den Thread-Link mitschicken.

  2. 10 Benutzer sagen Danke:

    animefan84 (21. August 2016),Brumme (12. November 2016),darksera (9. October 2016),Gold_93 (24. July 2016),Haftiabi Tefflondon (14. August 2016),midnighter (9. August 2016),Regi (21. July 2016),stellar (12. October 2016),Virgel (21. July 2016),Zapzerap (21. July 2016)

  3. #2
    United we Stand Avatar von 00Ryuji00
    Registriert seit
    Oct 2012
    Beiträge
    3.896
    Punkte
    99.716
    Errungenschaften:
    TomodachisGang LeaderHikikomoriTagger Amateur50000 Erfahrungspunkte

    Inuyasha Movie 4: Guren no Houraijima [Ger-Eng-Jap-Dub][Ger-Eng-Sub][1080p][BluRay] - WMD


    Inuyasha: Guren no Houraijima
    犬夜叉 紅蓮の蓬莱島
    Fire on the Mystic Island
    InuYasha - The Movie 4: Fire on the Mystic Island






    Kurzbeschreibung:
    Zitat Zitat von AniSearch.com
    Die geheimnisvolle Insel von Houraijima ist nach 50 Jahren wieder erschienen und damit hat der Angriff von vier Göttern, die Shitoushin, begonnen, die ein Auge auf die Kraft geworfen haben, die die Insel beschützt. Jetzt kommt es auf Inuyasha und seine Freunde an, zusammen mit Sesshoumaru einen Weg zu finden, die mächtigen Shitoushin zu besiegen.


    Spieldauer: 86min
    Genre: Fighting-Shounen
    Nebengenres: Abenteuer, Action, Drama, Fantasy, Fighting-Shounen, Komödie, Romanze
    Jahr: 2004
    Sprache: Deutsch, Englisch, Japanisch
    Untertitel: Deutsch, Englisch
    Größe: ~8.56 GiB
    Episodenanzahl: 1/1
    Format: MKV
    Auflösung: 1040p (1.85:1)
    Videocodec: x264 (AVC)
    Audiocodec: DTS
    Releasegruppe: WorMac
    Hoster: Uploaded, Share-Online


    MediaInfo
    Code:
    
    Format                                   : Matroska
    Format version                           : Version 2
    File size                                : 8.56 GiB
    Duration                                 : 1h 28mn
    Overall bit rate mode                    : Variable
    Overall bit rate                         : 13.9 Mbps
    Movie name                               : Inuyasha Movie 4 Ger-Eng-Jap-Dub Ger-Eng-Sub 1080P Wor Mac`S Download`S
    Encoded date                             : UTC 2013-06-27 18:30:16
    Writing application                      : mkvmerge v4.4.0 ('Die Wiederkehr') gebaut am Oct 31 2010 21:52:48
    Writing library                          : libebml v1.0.0 + libmatroska v1.0.0
    
    Video
    ID                                       : 1
    Format                                   : AVC
    Format/Info                              : Advanced Video Codec
    Format profile                           : [email protected]
    Format settings, CABAC                   : Yes
    Format settings, ReFrames                : 16 frames
    Muxing mode                              : Header stripping
    Codec ID                                 : V_MPEG4/ISO/AVC
    Duration                                 : 1h 28mn
    Width                                    : 1 920 pixels
    Height                                   : 1 040 pixels
    Display aspect ratio                     : 1.85:1
    Frame rate mode                          : Constant
    Frame rate                               : 29.970 fps
    Color space                              : YUV
    Chroma subsampling                       : 4:2:0
    Bit depth                                : 8 bits
    Scan type                                : Progressive
    Title                                    : Inuyasha Movie 4 Fire on the Mystic Island! 1080P
    Writing library                          : x264 core 130 r2273 b3065e6
    Encoding settings                        : cabac=1 / ref=16 / deblock=1:1:1 / analyse=0x3:0x133 / me=umh / subme=8 / psy=1 / psy_rd=1.00:0.00 / mixed_ref=1 / me_range=32 / chroma_me=1 / trellis=2 / 8x8dct=1 / cqm=0 / deadzone=21,11 / fast_pskip=0 / chroma_qp_offset=-2 / threads=12 / lookahead_threads=6 / sliced_threads=0 / nr=0 / decimate=0 / interlaced=0 / bluray_compat=0 / constrained_intra=0 / bframes=16 / b_pyramid=2 / b_adapt=2 / b_bias=0 / direct=3 / weightb=1 / open_gop=0 / weightp=2 / keyint=250 / keyint_min=25 / scenecut=40 / intra_refresh=0 / rc=crf / mbtree=0 / crf=18.0 / qcomp=0.80 / qpmin=0 / qpmax=69 / qpstep=4 / ip_ratio=1.40 / pb_ratio=1.30 / aq=2:1.30
    Language                                 : German
    Default                                  : Yes
    Forced                                   : No
    
    Audio #1
    ID                                       : 2
    Format                                   : DTS
    Format/Info                              : Digital Theater Systems
    Mode                                     : 16
    Format settings, Endianness              : Big
    Muxing mode                              : Header stripping
    Codec ID                                 : A_DTS
    Duration                                 : 1h 28mn
    Bit rate mode                            : Constant
    Bit rate                                 : 755 Kbps
    Channel(s)                               : 6 channels
    Channel positions                        : Front: L C R, Side: L R, LFE
    Sampling rate                            : 48.0 KHz
    Bit depth                                : 24 bits
    Compression mode                         : Lossy
    Stream size                              : 476 MiB (5%)
    Title                                    : DTS 5.1
    Language                                 : German
    Default                                  : Yes
    Forced                                   : No
    
    Audio #2
    ID                                       : 3
    Format                                   : DTS
    Format/Info                              : Digital Theater Systems
    Format profile                           : MA / Core
    Mode                                     : 16
    Format settings, Endianness              : Big
    Muxing mode                              : Header stripping
    Codec ID                                 : A_DTS
    Duration                                 : 1h 28mn
    Bit rate mode                            : Variable
    Bit rate                                 : Unknown / 1 509 Kbps
    Channel(s)                               : 6 channels
    Channel positions                        : Front: L C R, Side: L R, LFE
    Sampling rate                            : 48.0 KHz
    Bit depth                                : 16 bits
    Compression mode                         : Lossless / Lossy
    Title                                    : DTS 5.1
    Language                                 : English
    Default                                  : No
    Forced                                   : No
    
    Audio #3
    ID                                       : 4
    Format                                   : DTS
    Format/Info                              : Digital Theater Systems
    Format profile                           : MA / Core
    Mode                                     : 16
    Format settings, Endianness              : Big
    Muxing mode                              : Header stripping
    Codec ID                                 : A_DTS
    Duration                                 : 1h 28mn
    Bit rate mode                            : Variable
    Bit rate                                 : Unknown / 1 509 Kbps
    Channel(s)                               : 6 channels
    Channel positions                        : Front: L C R, Side: L R, LFE
    Sampling rate                            : 48.0 KHz
    Bit depth                                : 16 bits
    Compression mode                         : Lossless / Lossy
    Title                                    : DTS 5.1
    Language                                 : Japanese
    Default                                  : No
    Forced                                   : No
    
    Audio #4
    ID                                       : 5
    Format                                   : AC-3
    Format/Info                              : Audio Coding 3
    Mode extension                           : CM (complete main)
    Format settings, Endianness              : Big
    Muxing mode                              : Header stripping
    Codec ID                                 : A_AC3
    Duration                                 : 1h 28mn
    Bit rate mode                            : Constant
    Bit rate                                 : 192 Kbps
    Channel(s)                               : 2 channels
    Channel positions                        : Front: L R
    Sampling rate                            : 48.0 KHz
    Compression mode                         : Lossy
    Stream size                              : 121 MiB (1%)
    Title                                    : AC3 2.0 Deutscher Audio Kommentar!
    Language                                 : German
    Default                                  : No
    Forced                                   : No
    
    Text #1
    ID                                       : 6
    Format                                   : VobSub
    Muxing mode                              : zlib
    Codec ID                                 : S_VOBSUB
    Codec ID/Info                            : Picture based subtitle format used on DVDs
    Title                                    : Forced-Sub
    Language                                 : German
    Default                                  : Yes
    Forced                                   : No
    
    Text #2
    ID                                       : 7
    Format                                   : VobSub
    Muxing mode                              : zlib
    Codec ID                                 : S_VOBSUB
    Codec ID/Info                            : Picture based subtitle format used on DVDs
    Title                                    : Anrede Übersetzungs-Sub
    Language                                 : German
    Default                                  : No
    Forced                                   : No
    
    Text #3
    ID                                       : 8
    Format                                   : VobSub
    Muxing mode                              : zlib
    Codec ID                                 : S_VOBSUB
    Codec ID/Info                            : Picture based subtitle format used on DVDs
    Title                                    : Full-Sub
    Language                                 : German
    Default                                  : No
    Forced                                   : No
    
    Text #4
    ID                                       : 9
    Format                                   : PGS
    Muxing mode                              : zlib
    Codec ID                                 : S_HDMV/PGS
    Codec ID/Info                            : Picture based subtitle format used on BDs/HD-DVDs
    Title                                    : Full-Sub
    Language                                 : English
    Default                                  : No
    Forced                                   : No
    
    




    Geschützter Bereich - Bedanke dich beim Poster, um den Bereich sehen zu können
    Hier erfährst Du wie Du Dich bedanken kannst oder werde jetzt Premium Mitglied ab einer Spende von 5€ und erhalte sofortigen Zugriff auf den Downloadbereich!

    [Links sind nur für registrierte und aktivierte Nutzer sichtbar. Klicke hier um dich zu registrieren.]
    !!!Alle Anliegen bezüglich Uploads werden nur mit direktem Threadlink zum Angebot bearbeitet!!!

    Re-Uploadanfragen nur per PN - Ihr könnt mir auch Listen schicken

    Re-Uploads erfolgen meist innerhalb 24h, kann aber auch bis zu 7 Tage dauern

    [Links sind nur für registrierte und aktivierte Nutzer sichtbar. Klicke hier um dich zu registrieren.] | [Links sind nur für registrierte und aktivierte Nutzer sichtbar. Klicke hier um dich zu registrieren.] | >[Links sind nur für registrierte und aktivierte Nutzer sichtbar. Klicke hier um dich zu registrieren.]<
    [Links sind nur für registrierte und aktivierte Nutzer sichtbar. Klicke hier um dich zu registrieren.]

  4. 24 Benutzer sagen Danke:

    Aluaran (13. May 2016),andyb90 (29. May 2016),Asuka Langley (14. May 2016),Baschti1989 (13. May 2016),DR.N (1. June 2016),dreimer (13. May 2016),drparnassus (13. May 2016),galudo (13. May 2016),Gold_93 (9. July 2016),Griever (13. May 2016),Kevin04 (3. July 2016),Kradus (17. May 2016),manninator (5. June 2016),midnighter (9. August 2016),MutationACE (21. June 2016),Paulus (18. May 2016),prinzvegeta (31. May 2016),Reaper1 (20. June 2016),setugen no ao (13. May 2016),Sildurias (30. May 2016),Superzorro (27. May 2016),The Killer for Two (19. June 2016),UndeadBan (30. July 2016),Virgel (19. July 2016)

Lesezeichen

Berechtigungen

  • Neue Themen erstellen: Nein
  • Themen beantworten: Nein
  • Anhänge hochladen: Nein
  • Beiträge bearbeiten: Nein
  •  

1 2 3 4 5 6 7 8 9 10 11 12 13 14 15 16 17 18 19 20 21 22 23 24 25 26 27 28 29 30 31 32 33 34 35 36 37 38 39 40 41 42 43 44 45 46 47 48 49 50 51 52 53 54 55 56 57 58 59 60 61 62 63 64 65 66 67 68 69 70 71 72 73 74 75 76 77 78 79 80 81 82 83 84 85 86 87 88 89 90 91 92 93 94 95 96 97 98 99 100 101 102 103 104 105 106 107 108 109 110 111 112 113 114 115 116 117 118 119 120 121 122 123 124 125 126 127 128 129 130 131 132 133 134 135 136 137 138 139 140 141 142 143 144 145 146 147 148 149 150 151 152 153 154 155 156 157 158