Ergebnis 1 bis 1 von 1

Thema: Jin-Roh: Die Wolfsbrigade (2000) + Extras [Ger-Jap-Dub][DTS-HD HRA][Ger-Sub][1080p][BluRay][Remux]-SantaKlaus

Dieser Thread wurde noch nicht bewertet. Bewerte ihn doch, wenn er dir gefällt!
  1. #1
    Kleiner Experte Avatar von SantaKlaus
    Registriert seit
    Feb 2014
    Beiträge
    103
    Punkte
    5.867
    Errungenschaften:
    Hikikomori5000 Erfahrungspunkte

    Jin-Roh: Die Wolfsbrigade (2000) + Extras [Ger-Jap-Dub][DTS-HD HRA][Ger-Sub][1080p][BluRay][Remux]-SantaKlaus

    Jin-Roh: Die Wolfsbrigade
    Jin-Rou
    人狼






    Kurzbeschreibung:
    Tokio, zehn Jahre nach dem zweiten Weltkrieg. Das Land erholte sich langsam wieder, stand nun aber unter der Kontrolle einer Besatzungsmacht. Durch den schnellen Wiederaufbau der Wirtschaft gab es viele Arbeitslose, die in die Städte strömten. Das wiederum verstärkte die Slumbildung, welche ein Nährboden für Kriminalität war.

    Dem nun wachsenden Einfluss einer Antiregierungsbewegung stand die Polizei machtlos gegenüber, was eine ernstzunehmende Krise in der Gesellschaft verursachte. Um nun die eigenen Streitkräfte aus den innenpolitischen Angelegenheiten fern zu halten und gleichzeitig die Polizei an ihrem Vorhaben zu hindern, zur Staatspolizei zu werden, wählte die Regierung einen dritten Weg. Sie schuf die Hauptstadtpolizei mit ihrer kampfstarken Spezialeinheit, die dem Ausschuss für öffentliche Sicherheit direkt unterstellt war. Ihr Aktionsgebiet war allerdings auf die Hauptstadt beschränkt, wo sie als Wächter der öffentlichen Sicherheit galten. Die Situation änderte sich allerdings radikal, als der sogenannte Feind der Hauptstadtpolizei für verfassungswidrig erklärt wurde und sich auflöste. Aus einigen Splittergruppen formte sich nun eine Terrororganisation, genannt 'die Sekte'.

    Die Härte der Auseinandersetzungen zwischen der Sekte und der Spezialeinheit, dem Kern der Hauptstadtpolizei, nahm zu und ihre Konfrontationen erreichten mehr und mehr die Ausmaße von Straßenschlachten. Dies löste eine heftige Kritik gegen beide Seiten aus. Da sich die wirtschaftliche Lage langsam besserte und die Menschen wieder mehr Hoffnung bekamen, trieben die Spezialeinheit und die Sekte in die Isolation ab. Der historische Auftrag der Spezialeinheit, die auch Kerberos genannt wurde, ging allmählich zu Ende, aber nun erhielten sie einen neuen und gleichzeitig endgültigen Auftrag.

    Vor diesem Hintergrund spielt nun Jin-Roh. Nach einem Bombenanschlag der Sekte stellt Kazuki Fuse, Angehöriger der Spezialeinheit, ein junges Mädchen, das als Waffenkurier für die Sekte arbeitet. Anstatt sie zu erschießen, zögert Fuse und sieht mit an, wie sie sich mit ihrer mitgeführten Wurfbombe selbst sprengt. Durch die nun folgenden Disziplinarmaßnahmen muss Fuse die Ausbildung wiederholen und gerät unter Beobachtung. Wenig später lernt er ein Mädchen kennen, das sich als die Schwester des Waffenkuriers vorstellt. Es entwickelt sich eine ungewöhnliche Beziehung zwischen den Beiden, die allerdings bald auf eine harte Probe gestellt wird...


    Format: 16:9
    Auflösung: 1080p
    Source: Blu-ray
    Codec: AVC
    Hoster: Share-Online
    Ton:
    Deutsch DTS-HD HRA 5.1
    Japanisch DTS-HD HRA 5.1

    Dateiliste
    Spoiler
    Code:
    Jin-Roh- Die Wolfsbrigade (2000)/Jin-Roh- Die Wolfsbrigade (2000).mkv
    Jin-Roh- Die Wolfsbrigade (2000)/Behind The Scenes/Animationsstudien.mkv
    Jin-Roh- Die Wolfsbrigade (2000)/Behind The Scenes/Internationale Featurette.mkv
    Jin-Roh- Die Wolfsbrigade (2000)/Behind The Scenes/Originalskizzen.mkv
    Jin-Roh- Die Wolfsbrigade (2000)/Behind The Scenes/The Making of Jin-Roh.mkv
    Jin-Roh- Die Wolfsbrigade (2000)/Trailers/Japanischer Trailer.mkv
    Jin-Roh- Die Wolfsbrigade (2000)/Trailers/Japanischer TV Spot.mkv


    MediaInfo
    Spoiler
    Code:
    General
    Unique ID                   : 54773287305737354514841860339356881918 (0x2934F390184ECCBBEE66F0B546E353FE)
    Complete name               : Jin-Roh- Die Wolfsbrigade (2000)/Jin-Roh- Die Wolfsbrigade (2000).mkv
    Format                      : Matroska
    Format version              : Version 2
    File size                   : 18.6 GiB
    Duration                    : 1h 41mn
    Overall bit rate mode       : Variable
    Overall bit rate            : 26.1 Mbps
    Movie name                  : JIN-ROH
    Encoded date                : UTC 2015-09-09 16:52:52
    Writing application         : MakeMKV v1.9.5 win(x64-release)
    Writing library             : libmakemkv v1.9.5 (1.3.0/1.4.1) win(x64-release)
    
    Video
    ID                          : 1
    Format                      : AVC
    Format/Info                 : Advanced Video Codec
    Format profile              : [email protected]
    Format settings, CABAC      : Yes
    Format settings, ReFrames   : 4 frames
    Format settings, GOP        : M=4, N=12
    Codec ID                    : V_MPEG4/ISO/AVC
    Duration                    : 1h 41mn
    Bit rate mode               : Variable
    Bit rate                    : 21.5 Mbps
    Maximum bit rate            : 34.0 Mbps
    Width                       : 1 920 pixels
    Height                      : 1 080 pixels
    Display aspect ratio        : 16:9
    Frame rate mode             : Constant
    Frame rate                  : 23.976 fps
    Standard                    : NTSC
    Color space                 : YUV
    Chroma subsampling          : 4:2:0
    Bit depth                   : 8 bits
    Scan type                   : Progressive
    Bits/(Pixel*Frame)          : 0.433
    Stream size                 : 15.3 GiB (82%)
    Language                    : Japanese
    Default                     : Yes
    Forced                      : No
    Color range                 : Limited
    Color primaries             : BT.709
    Transfer characteristics    : BT.709
    Matrix coefficients         : BT.709
    
    Audio #1
    ID                          : 2
    Format                      : DTS
    Format/Info                 : Digital Theater Systems
    Format profile              : HRA / Core
    Mode                        : 16
    Format settings, Endianness : Big
    Codec ID                    : A_DTS
    Duration                    : 1h 41mn
    Bit rate mode               : Constant
    Bit rate                    : 2 046 Kbps / 1 509 Kbps
    Channel(s)                  : 6 channels
    Channel positions           : Front: L C R, Side: L R, LFE
    Sampling rate               : 48.0 KHz
    Bit depth                   : 16 bits
    Compression mode            : Lossy
    Stream size                 : 1.45 GiB (8%)
    Title                       : Surround 5.1
    Language                    : German
    Default                     : Yes
    Forced                      : No
    
    Audio #2
    ID                          : 3
    Format                      : DTS
    Format/Info                 : Digital Theater Systems
    Format profile              : HRA / Core
    Mode                        : 16
    Format settings, Endianness : Big
    Codec ID                    : A_DTS
    Duration                    : 1h 41mn
    Bit rate mode               : Constant
    Bit rate                    : 2 046 Kbps / 1 509 Kbps
    Channel(s)                  : 6 channels
    Channel positions           : Front: L C R, Side: L R, LFE
    Sampling rate               : 48.0 KHz
    Bit depth                   : 16 bits
    Compression mode            : Lossy
    Stream size                 : 1.45 GiB (8%)
    Title                       : Surround 5.1
    Language                    : Japanese
    Default                     : No
    Forced                      : No
    
    Text #1
    ID                          : 6
    Format                      : PGS
    Codec ID                    : S_HDMV/PGS
    Codec ID/Info               : Picture based subtitle format used on BDs/HD-DVDs
    Language                    : German
    Default                     : Yes
    Forced                      : Yes
    
    Text #2
    ID                          : 7
    Format                      : PGS
    Codec ID                    : S_HDMV/PGS
    Codec ID/Info               : Picture based subtitle format used on BDs/HD-DVDs
    Language                    : German
    Default                     : No
    Forced                      : No
    
    Menu
    00:00:00.000                : en:Chapter 01
    00:06:37.855                : en:Chapter 02
    00:15:42.232                : en:Chapter 03
    00:22:59.044                : en:Chapter 04
    00:34:11.883                : en:Chapter 05
    00:41:10.092                : en:Chapter 06
    00:52:51.835                : en:Chapter 07
    00:59:06.668                : en:Chapter 08
    01:06:03.584                : en:Chapter 09
    01:18:24.783                : en:Chapter 10
    01:23:35.844                : en:Chapter 11
    01:36:42.546                : en:Chapter 12



    Geschützter Bereich - Bedanke dich beim Poster, um den Bereich sehen zu können
    Hier erfährst Du wie Du Dich bedanken kannst oder werde jetzt Premium Mitglied ab einer Spende von 5€ und erhalte sofortigen Zugriff auf den Downloadbereich!

  2. 31 Benutzer sagen Danke:

    aisenmond (21. September 2015),animeathome (18. March 2016),bleach-master (19. October 2015),Busch (5. December 2015),Buschkilla (9. November 2015),chopper23 (19. August 2016),Countermonk (17. September 2015),dacheff (19. September 2015),dagger85 (22. December 2015),DarkTerminator (29. July 2016),freakwatcher (19. September 2015),ghost55 (12. June 2016),HerzogZepar (13. January 2016),KXXXI (23. June 2016),Lunacy (12. February 2016),Lux49 (16. December 2015),Lynexx (28. July 2016),mar3el (31. July 2016),MasterTroll (28. March 2016),MattDeox (18. May 2016),Miauundso (10. September 2015),midnighter (10. October 2015),Mr.Classic (14. October 2015),Retro (11. September 2015),Roxas-chan (11. October 2015),rudizone (25. August 2016),sativa (6. December 2015),shadow2442 (15. November 2015),Shana:3 (8. November 2015),Vastolord (2. January 2016),Wides (14. September 2015)

Lesezeichen

Berechtigungen

  • Neue Themen erstellen: Nein
  • Themen beantworten: Nein
  • Anhänge hochladen: Nein
  • Beiträge bearbeiten: Nein
  •  

1 2 3 4 5 6 7 8 9 10 11 12 13 14 15 16 17 18 19 20 21 22 23 24 25 26 27 28 29 30 31 32 33 34 35 36 37 38 39 40 41 42 43 44 45 46 47 48 49 50 51 52 53 54 55 56 57 58 59 60 61 62 63 64 65 66 67 68 69 70 71 72 73 74 75 76 77 78 79 80 81 82 83 84 85 86 87 88 89 90 91 92 93 94 95 96 97 98 99 100 101 102 103 104 105 106 107 108 109 110 111 112 113 114 115 116 117 118 119 120 121 122 123 124 125 126 127 128 129 130 131 132 133 134 135 136 137 138 139 140 141 142 143 144 145 146 147 148 149 150 151 152 153 154 155 156 157 158