Ergebnis 1 bis 2 von 2

Thema: Kara no Kyoukai Film 1-7 [Ger-Jap-Dub][Ger-Eng-Sub][720p/1080p][BluRay] - Li0N

Dieser Thread wurde noch nicht bewertet. Bewerte ihn doch, wenn er dir gefällt!
  1. #1
    United we Stand Avatar von 00Ryuji00
    Registriert seit
    Oct 2012
    Beiträge
    3.902
    Punkte
    99.938
    Errungenschaften:
    TomodachisGang LeaderHikikomoriTagger Amateur50000 Erfahrungspunkte

    Kara no Kyoukai Film 1-7 [Ger-Jap-Dub][Ger-Eng-Sub][720p/1080p][BluRay] - Li0N


    Gekijouban Kara no Kyoukai
    劇場版 空の境界
    The Garden of Sinners






    Kurzbeschreibung:
    Zitat Zitat von AniSearch.com
    1998 geht die Nachricht einer Reihe von Selbstmorden durch die Medien. Alles Schülerinnen aus normalen Verhältnissen, die sich vom Dach desselben Gebäude stürzten. Kaum zu einer persönlichen Angelegenheit geworden, beschäftigt sich Shiki auch schon eingehender mit den Vorfällen. Der Vorhang für Kara no Kyoukai geht auf. Eine Filmreihe deren Teile nicht chronologisch gereiht sind und die den Zuschauer zu Beginn vor Tatsachen stellt, die erst später beleuchtet werden.
    ------------------------------------------------
    In chronologischer Reihenfolge der 4. Film.


    Spieldauer: 48min - 120min
    Genre: Actiondrama, Drama
    Nebengenres: Action, Drama, Fantasy, Mystery, Psychodrama, Romanze, Thriller, Übermäßige Gewaltdarstellung
    Jahr: 2007-2008
    Sprache: Deutsch, Japanisch
    Untertitel: Deutsch, Englisch
    Größe pro Folge: ~757 MiB ~3.97 GiB
    Episodenanzahl: 7/7
    Format: MKV
    Auflösung: 720p (16:9), 1080p (16:9)
    Videocodec: x264 (AVC)
    Audiocodec: AC-3
    Releasegruppe: Li0N
    Hoster: Share-Online, Uploaded


    MediaInfo
    720p
    Code:
    
    Format                                   : Matroska
    Format version                           : Version 2
    File size                                : 757 MiB
    Duration                                 : 50mn 9s
    Overall bit rate                         : 2 112 Kbps
    Encoded date                             : UTC 2012-07-26 05:31:10
    Writing application                      : mkvmerge v5.6.0 ('Kenya Kane') built on May 27 2012 16:44:04
    Writing library                          : libebml v1.2.3 + libmatroska v1.3.0
    Attachements                             : Georgia.ttf / Georgia Italic.ttf / VIKING-N.TTF / AJensonPro-SemiboldItSubh.ttf / AJensonPro-SemiboldSubh.ttf / arial.ttf / CALIBRI.TTF / ChaparralPro-Semibold.ttf / ChaparralPro-SemiboldIt.ttf / FRML436N.TTF / LT_51537.TTF / NITEMARE.TTF / Another.ttf
    
    Video
    ID                                       : 1
    Format                                   : AVC
    Format/Info                              : Advanced Video Codec
    Format profile                           : [email protected]
    Format settings, CABAC                   : Yes
    Format settings, ReFrames                : 11 frames
    Muxing mode                              : Header stripping
    Codec ID                                 : V_MPEG4/ISO/AVC
    Duration                                 : 50mn 9s
    Bit rate                                 : 1 174 Kbps
    Width                                    : 1 280 pixels
    Height                                   : 720 pixels
    Display aspect ratio                     : 16:9
    Frame rate mode                          : Constant
    Frame rate                               : 23.976 fps
    Color space                              : YUV
    Chroma subsampling                       : 4:2:0
    Bit depth                                : 8 bits
    Scan type                                : Progressive
    Bits/(Pixel*Frame)                       : 0.053
    Stream size                              : 421 MiB (56%)
    Title                                    : H.264
    Writing library                          : x264 core 112
    Encoding settings                        : cabac=1 / ref=12 / deblock=1:0:0 / analyse=0x3:0x113 / me=hex / subme=10 / psy=1 / psy_rd=1.00:0.00 / mixed_ref=1 / me_range=16 / chroma_me=1 / trellis=2 / 8x8dct=1 / cqm=0 / deadzone=21,11 / fast_pskip=0 / chroma_qp_offset=-2 / threads=12 / sliced_threads=0 / nr=0 / decimate=0 / interlaced=0 / constrained_intra=0 / bframes=12 / b_pyramid=1 / b_adapt=2 / b_bias=0 / direct=3 / weightb=1 / open_gop=0 / weightp=2 / keyint=240 / keyint_min=23 / scenecut=40 / intra_refresh=0 / rc_lookahead=40 / rc=crf / mbtree=1 / crf=16.0 / qcomp=0.60 / qpmin=3 / qpmax=51 / qpstep=4 / ip_ratio=1.40 / aq=1:1.00
    Language                                 : Japanese
    Default                                  : Yes
    Forced                                   : No
    Color range                              : Limited
    Color primaries                          : BT.709
    Transfer characteristics                 : BT.709
    Matrix coefficients                      : BT.709
    
    Audio #1
    ID                                       : 2
    Format                                   : AC-3
    Format/Info                              : Audio Coding 3
    Mode extension                           : CM (complete main)
    Format settings, Endianness              : Big
    Muxing mode                              : Header stripping
    Codec ID                                 : A_AC3
    Duration                                 : 50mn 9s
    Bit rate mode                            : Constant
    Bit rate                                 : 448 Kbps
    Channel(s)                               : 6 channels
    Channel positions                        : Front: L C R, Side: L R, LFE
    Sampling rate                            : 48.0 KHz
    Compression mode                         : Lossy
    Delay relative to video                  : 1s 0ms
    Stream size                              : 161 MiB (21%)
    Title                                    : Deutsch AC3 5.1
    Language                                 : German
    Default                                  : Yes
    Forced                                   : No
    
    Audio #2
    ID                                       : 3
    Format                                   : AC-3
    Format/Info                              : Audio Coding 3
    Mode extension                           : CM (complete main)
    Format settings, Endianness              : Big
    Muxing mode                              : Header stripping
    Codec ID                                 : A_AC3
    Duration                                 : 50mn 9s
    Bit rate mode                            : Constant
    Bit rate                                 : 448 Kbps
    Channel(s)                               : 6 channels
    Channel positions                        : Front: L C R, Side: L R, LFE
    Sampling rate                            : 48.0 KHz
    Compression mode                         : Lossy
    Stream size                              : 161 MiB (21%)
    Title                                    : Japanisch AC3 5.1
    Language                                 : Japanese
    Default                                  : No
    Forced                                   : No
    
    Text #1
    ID                                       : 4
    Format                                   : ASS
    Codec ID                                 : S_TEXT/ASS
    Codec ID/Info                            : Advanced Sub Station Alpha
    Compression mode                         : Lossless
    Title                                    : Deutsch Forced [ASS]
    Language                                 : German
    Default                                  : No
    Forced                                   : No
    
    Text #2
    ID                                       : 5
    Format                                   : ASS
    Codec ID                                 : S_TEXT/ASS
    Codec ID/Info                            : Advanced Sub Station Alpha
    Compression mode                         : Lossless
    Title                                    : Deutsch Full [ASS]
    Language                                 : German
    Default                                  : No
    Forced                                   : No
    
    Text #3
    ID                                       : 6
    Format                                   : ASS
    Codec ID                                 : S_TEXT/ASS
    Codec ID/Info                            : Advanced Sub Station Alpha
    Compression mode                         : Lossless
    Title                                    : Styled Subs [gg-TakaJun]
    Language                                 : English
    Default                                  : No
    Forced                                   : No
    
    Text #4
    ID                                       : 7
    Format                                   : ASS
    Codec ID                                 : S_TEXT/ASS
    Codec ID/Info                            : Advanced Sub Station Alpha
    Compression mode                         : Lossless
    Title                                    : Styled Subs [Retail]
    Language                                 : English
    Default                                  : No
    Forced                                   : No
    
    Menu
    00:00:00.000                             : en:00:00:00.000
    00:02:21.850                             : en:00:02:21.850
    00:04:13.837                             : en:00:04:13.837
    00:14:00.131                             : en:00:14:00.131
    00:18:30.276                             : en:00:18:30.276
    00:25:14.430                             : en:00:25:14.430
    00:29:16.672                             : en:00:29:16.672
    00:37:25.910                             : en:00:37:25.910
    00:43:21.182                             : en:00:43:21.182
    00:47:26.677                             : en:00:47:26.677
    00:49:02.565                             : en:00:49:02.565
    
    


    1080p
    Code:
    
    Format                                   : Matroska
    Format version                           : Version 4 / Version 2
    File size                                : 3.97 GiB
    Duration                                 : 50mn 9s
    Overall bit rate                         : 11.3 Mbps
    Encoded date                             : UTC 2013-04-26 08:23:23
    Writing application                      : mkvmerge v6.1.0 ('Old Devil') built on Mar  2 2013 15:15:26
    Writing library                          : libebml v1.3.0 + libmatroska v1.4.0
    Attachements                             : Georgia.ttf / Georgia Italic.ttf / VIKING-N.TTF / AJensonPro-SemiboldItSubh.ttf / AJensonPro-SemiboldSubh.ttf / arial.ttf / CALIBRI.TTF / ChaparralPro-Semibold.ttf / ChaparralPro-SemiboldIt.ttf / FRML436N.TTF / LT_51537.TTF / NITEMARE.TTF / Another.ttf / CronosPro-Regular.otf / epson Pwwww.ttf / erasdus0.ttf / JOSSCHRI.TTF / Josschrift_Bold.ttf / laurencb.ttf / mtf_heartdoodle.ttf / NovareseStd-Book.otf / ArnoPro-Caption.otf / ArtificeSSK.ttf / BAKESBR_.TTF / COMMI___.TTF / COMMUNIS.TTF / CronosPro-CaptIt.otf
    
    Video
    ID                                       : 1
    Format                                   : AVC
    Format/Info                              : Advanced Video Codec
    Format profile                           : [email protected]
    Format settings, CABAC                   : Yes
    Format settings, ReFrames                : 4 frames
    Codec ID                                 : V_MPEG4/ISO/AVC
    Duration                                 : 50mn 9s
    Bit rate                                 : 10.2 Mbps
    Width                                    : 1 920 pixels
    Height                                   : 1 080 pixels
    Display aspect ratio                     : 16:9
    Frame rate mode                          : Constant
    Frame rate                               : 23.976 fps
    Color space                              : YUV
    Chroma subsampling                       : 4:2:0
    Bit depth                                : 8 bits
    Scan type                                : Progressive
    Bits/(Pixel*Frame)                       : 0.206
    Stream size                              : 3.58 GiB (90%)
    Writing library                          : x264 core 112 r1867 22bfd31
    Encoding settings                        : cabac=1 / ref=4 / deblock=1:0:0 / analyse=0x3:0x133 / me=umh / subme=9 / psy=1 / psy_rd=0.70:0.00 / mixed_ref=1 / me_range=32 / chroma_me=1 / trellis=2 / 8x8dct=1 / cqm=0 / deadzone=21,11 / fast_pskip=0 / chroma_qp_offset=-3 / threads=12 / sliced_threads=0 / nr=0 / decimate=0 / interlaced=0 / constrained_intra=0 / bframes=12 / b_pyramid=0 / b_adapt=2 / b_bias=0 / direct=1 / weightb=1 / open_gop=0 / weightp=2 / keyint=250 / keyint_min=23 / scenecut=40 / intra_refresh=0 / rc_lookahead=40 / rc=crf / mbtree=0 / crf=16.5 / qcomp=0.73 / qpmin=9 / qpmax=32 / qpstep=4 / vbv_maxrate=40000 / vbv_bufsize=62500 / crf_max=0.0 / nal_hrd=none / ip_ratio=1.40 / pb_ratio=1.30 / aq=1:1.00
    Language                                 : English
    Default                                  : Yes
    Forced                                   : No
    
    Audio #1
    ID                                       : 2
    Format                                   : AC-3
    Format/Info                              : Audio Coding 3
    Mode extension                           : CM (complete main)
    Format settings, Endianness              : Big
    Codec ID                                 : A_AC3
    Duration                                 : 50mn 9s
    Bit rate mode                            : Constant
    Bit rate                                 : 448 Kbps
    Channel(s)                               : 6 channels
    Channel positions                        : Front: L C R, Side: L R, LFE
    Sampling rate                            : 48.0 KHz
    Compression mode                         : Lossy
    Delay relative to video                  : 1s 0ms
    Stream size                              : 161 MiB (4%)
    Title                                    : Deutsch AC3 5.1
    Language                                 : German
    Default                                  : Yes
    Forced                                   : No
    
    Audio #2
    ID                                       : 3
    Format                                   : AC-3
    Format/Info                              : Audio Coding 3
    Mode extension                           : CM (complete main)
    Format settings, Endianness              : Big
    Codec ID                                 : A_AC3
    Duration                                 : 50mn 9s
    Bit rate mode                            : Constant
    Bit rate                                 : 448 Kbps
    Channel(s)                               : 6 channels
    Channel positions                        : Front: L C R, Side: L R, LFE
    Sampling rate                            : 48.0 KHz
    Compression mode                         : Lossy
    Stream size                              : 161 MiB (4%)
    Title                                    : Japanisch AC3 5.1
    Language                                 : Japanese
    Default                                  : No
    Forced                                   : No
    
    Text #1
    ID                                       : 4
    Format                                   : ASS
    Codec ID                                 : S_TEXT/ASS
    Codec ID/Info                            : Advanced Sub Station Alpha
    Compression mode                         : Lossless
    Title                                    : Deutsch Forced [ASS]
    Language                                 : German
    Default                                  : Yes
    Forced                                   : No
    
    Text #2
    ID                                       : 5
    Format                                   : ASS
    Codec ID                                 : S_TEXT/ASS
    Codec ID/Info                            : Advanced Sub Station Alpha
    Compression mode                         : Lossless
    Title                                    : Deutsch Full [ASS]
    Language                                 : German
    Default                                  : No
    Forced                                   : No
    
    Text #3
    ID                                       : 6
    Format                                   : ASS
    Codec ID                                 : S_TEXT/ASS
    Codec ID/Info                            : Advanced Sub Station Alpha
    Compression mode                         : Lossless
    Title                                    : Styled Subs [gg-TakaJun]
    Language                                 : English
    Default                                  : No
    Forced                                   : No
    
    Text #4
    ID                                       : 7
    Format                                   : ASS
    Codec ID                                 : S_TEXT/ASS
    Codec ID/Info                            : Advanced Sub Station Alpha
    Compression mode                         : Lossless
    Title                                    : Styled Subs [Retail]
    Language                                 : English
    Default                                  : No
    Forced                                   : No
    
    Menu
    00:00:00.000                             : en:00:00:00.000
    00:02:21.850                             : en:00:02:21.850
    00:04:13.837                             : en:00:04:13.837
    00:14:00.131                             : en:00:14:00.131
    00:18:30.276                             : en:00:18:30.276
    00:25:14.430                             : en:00:25:14.430
    00:29:16.672                             : en:00:29:16.672
    00:37:25.910                             : en:00:37:25.910
    00:43:21.182                             : en:00:43:21.182
    00:47:26.677                             : en:00:47:26.677
    00:49:02.565                             : en:00:49:02.565
    
    






    Geschützter Bereich - Bedanke dich beim Poster, um den Bereich sehen zu können
    Hier erfährst Du wie Du Dich bedanken kannst oder werde jetzt Premium Mitglied ab einer Spende von 5€ und erhalte sofortigen Zugriff auf den Downloadbereich!

    [Links sind nur für registrierte und aktivierte Nutzer sichtbar. Klicke hier um dich zu registrieren.]
    !!!Alle Anliegen bezüglich Uploads werden nur mit direktem Threadlink zum Angebot bearbeitet!!!

    Re-Uploadanfragen nur per PN - Ihr könnt mir auch Listen schicken

    Re-Uploads erfolgen meist innerhalb 24h, kann aber auch bis zu 7 Tage dauern

    [Links sind nur für registrierte und aktivierte Nutzer sichtbar. Klicke hier um dich zu registrieren.] | [Links sind nur für registrierte und aktivierte Nutzer sichtbar. Klicke hier um dich zu registrieren.] | >[Links sind nur für registrierte und aktivierte Nutzer sichtbar. Klicke hier um dich zu registrieren.]<
    [Links sind nur für registrierte und aktivierte Nutzer sichtbar. Klicke hier um dich zu registrieren.]

  2. 44 Benutzer sagen Danke:

    andyb90 (29. May 2016),Angel86 (28. May 2016),Asturaetus (9. August 2016),Asuka Langley (28. May 2016),BlackPhoenix (4. June 2016),Chilko (25. May 2016),chopper23 (23. May 2016),chris1989 (29. October 2016),Conmar (10. August 2016),Ghostraven (16. August 2016),Gorbatschow (8. October 2016),Grom (5. October 2016),hunterhunter (10. July 2016),Ibanezar (14. August 2016),IN4T0R (16. July 2016),Jinnay (24. May 2016),K1r4 (4. December 2016),Kalchi (10. October 2016),kras12 (5. November 2016),lucky_mer (7. November 2016),mar3el (14. August 2016),Marcii-16 (25. June 2016),MCRFG (23. May 2016),midnighter (21. June 2016),Mr.Shit (18. June 2016),mrfreeman (20. June 2016),Nibu (21. August 2016),Niveaulus (2. November 2016),PaDDy92 (23. May 2016),puschie (3. November 2016),Regi (4. June 2016),Rena_Chan (2. August 2016),Rin58 (28. May 2016),rofler86 (28. May 2016),Schaedeldecke (31. August 2016),skylier (26. May 2016),SONNYxq (25. October 2016),Sora (23. May 2016),Starbrand (28. May 2016),Superzorro (27. May 2016),Tarlysin (27. May 2016),Terraner (11. July 2016),Tidus18 (27. June 2016),zimbo201174 (23. May 2016)

  3. #2
    United we Stand Avatar von 00Ryuji00
    Registriert seit
    Oct 2012
    Beiträge
    3.902
    Punkte
    99.938
    Errungenschaften:
    TomodachisGang LeaderHikikomoriTagger Amateur50000 Erfahrungspunkte

    AW: Kara no Kyoukai Film 1-7 [Ger-Jap-Dub][Ger-Eng-Sub][720p/1080p][BluRay] - Li0N

    Update: Dateien auf Wunsch wieder online.
    !!!Alle Anliegen bezüglich Uploads werden nur mit direktem Threadlink zum Angebot bearbeitet!!!

    Re-Uploadanfragen nur per PN - Ihr könnt mir auch Listen schicken

    Re-Uploads erfolgen meist innerhalb 24h, kann aber auch bis zu 7 Tage dauern

    [Links sind nur für registrierte und aktivierte Nutzer sichtbar. Klicke hier um dich zu registrieren.] | [Links sind nur für registrierte und aktivierte Nutzer sichtbar. Klicke hier um dich zu registrieren.] | >[Links sind nur für registrierte und aktivierte Nutzer sichtbar. Klicke hier um dich zu registrieren.]<
    [Links sind nur für registrierte und aktivierte Nutzer sichtbar. Klicke hier um dich zu registrieren.]

  4. 2 Benutzer sagen Danke:

    puschie (3. November 2016),Sora (24. October 2016)

Lesezeichen

Berechtigungen

  • Neue Themen erstellen: Nein
  • Themen beantworten: Nein
  • Anhänge hochladen: Nein
  • Beiträge bearbeiten: Nein
  •  

1 2 3 4 5 6 7 8 9 10 11 12 13 14 15 16 17 18 19 20 21 22 23 24 25 26 27 28 29 30 31 32 33 34 35 36 37 38 39 40 41 42 43 44 45 46 47 48 49 50 51 52 53 54 55 56 57 58 59 60 61 62 63 64 65 66 67 68 69 70 71 72 73 74 75 76 77 78 79 80 81 82 83 84 85 86 87 88 89 90 91 92 93 94 95 96 97 98 99 100 101 102 103 104 105 106 107 108 109 110 111 112 113 114 115 116 117 118 119 120 121 122 123 124 125 126 127 128 129 130 131 132 133 134 135 136 137 138 139 140 141 142 143 144 145 146 147 148 149 150 151 152 153 154 155 156 157 158