Ergebnis 1 bis 1 von 1

Thema: Kokoro ga Sakebitagatterunda [Jap-Dub][Ger-Sub][720p][BluRay][x264] - Pure-Anime

Dieser Thread wurde noch nicht bewertet. Bewerte ihn doch, wenn er dir gefällt!
  1. #1
    Erfahrener Otaku Avatar von DjRayleigh
    Registriert seit
    Jul 2015
    Beiträge
    195
    Punkte
    2.962
    Errungenschaften:
    1000 ErfahrungspunkteHyperaktivErste GruppeTomodachisSenpai

    Kokoro ga Sakebitagatterunda [Jap-Dub][Ger-Sub][720p][BluRay][x264] - Pure-Anime


    Kokoro ga Sakebitagatterunda.
    心が叫びたがってるんだ。
    The Anthem of the Heart






    Kurzbeschreibung:
    Zitat Zitat von AniSearch.com
    Die Geschichte dreht sich um das Mädchen Jun, das früher mal sehr glücklich war. Durch eine unbedachte Äußerung in ihrer Kindheit, die unter anderem ihre Familie auseinandergerissen hat, lebt sie zurückgezogen und bekommt kaum Besuch. Zudem erschien eines Tages eine Fee vor ihr, von der sie sich wünschte, dass sie keine Leute mehr verletzen kann. Doch im Austausch wurde ihr ihre Fähigkeit zu reden genommen. Aber eines Tages hat ihr Alleinsein ein Ende, denn sie wurde nominiert, ein Mitglied der Community Outreach Council zu werden. Obendrein wird Jun auch noch zur Hauptrolle eines Musicals ernannt … Wie wird ihr Leben wohl weiter verlaufen und kann Jun tatsächlich wieder glücklich werden?


    Spieldauer: 120
    Genre: Drama
    Nebengenres: Drama Gegenwart Schule Theater
    Jahr: 2015
    Sprache: Japanisch
    Untertitel: Deutsch
    Größe pro Folge: ~1.04 GiB
    Episodenanzahl: 1/1
    Format: MP4
    Auflösung: 720p (16:9)
    Videocodec: x264 (AVC)
    Audiocodec: AAC
    Releasegruppe: Pure-Anime
    Hoster: Share-Online, Uploaded


    MediaInfo
    Code:
    
    Format                                   : MPEG-4
    Format profile                           : Base Media
    Codec ID                                 : isom
    File size                                : 1.04 GiB
    Duration                                 : 1h 59mn
    Overall bit rate mode                    : Variable
    Overall bit rate                         : 1 252 Kbps
    Encoded date                             : UTC 2016-04-22 23:58:05
    Tagged date                              : UTC 2016-04-22 23:58:05
    
    Video
    ID                                       : 1
    Format                                   : AVC
    Format/Info                              : Advanced Video Codec
    Format profile                           : [email protected]
    Format settings, CABAC                   : Yes
    Format settings, ReFrames                : 4 frames
    Codec ID                                 : avc1
    Codec ID/Info                            : Advanced Video Coding
    Duration                                 : 1h 59mn
    Bit rate                                 : 875 Kbps
    Maximum bit rate                         : 10.4 Mbps
    Width                                    : 1 280 pixels
    Height                                   : 720 pixels
    Display aspect ratio                     : 16:9
    Frame rate mode                          : Constant
    Frame rate                               : 23.976 fps
    Color space                              : YUV
    Chroma subsampling                       : 4:2:0
    Bit depth                                : 8 bits
    Scan type                                : Progressive
    Bits/(Pixel*Frame)                       : 0.040
    Stream size                              : 747 MiB (70%)
    Writing library                          : x264 core 148 r2638 7599210
    Encoding settings                        : cabac=1 / ref=3 / deblock=1:0:0 / analyse=0x3:0x113 / me=hex / subme=7 / psy=1 / psy_rd=1.00:0.00 / mixed_ref=1 / me_range=16 / chroma_me=1 / trellis=1 / 8x8dct=1 / cqm=0 / deadzone=21,11 / fast_pskip=1 / chroma_qp_offset=-2 / threads=12 / lookahead_threads=2 / sliced_threads=0 / nr=0 / decimate=1 / interlaced=0 / bluray_compat=0 / constrained_intra=0 / bframes=3 / b_pyramid=2 / b_adapt=1 / b_bias=0 / direct=1 / weightb=1 / open_gop=0 / weightp=2 / keyint=240 / keyint_min=23 / scenecut=40 / intra_refresh=0 / rc_lookahead=40 / rc=2pass / mbtree=1 / bitrate=875 / ratetol=1.0 / qcomp=0.60 / qpmin=0 / qpmax=69 / qpstep=4 / cplxblur=20.0 / qblur=0.5 / ip_ratio=1.40 / aq=1:1.00
    Encoded date                             : UTC 2016-04-22 23:58:05
    Tagged date                              : UTC 2016-04-22 23:58:13
    
    Audio
    ID                                       : 2
    Format                                   : AAC
    Format/Info                              : Advanced Audio Codec
    Format profile                           : LC
    Codec ID                                 : 40
    Duration                                 : 1h 59mn
    Bit rate mode                            : Variable
    Bit rate                                 : 373 Kbps
    Maximum bit rate                         : 513 Kbps
    Channel(s)                               : 6 channels
    Channel positions                        : Front: L C R, Side: L R, LFE
    Sampling rate                            : 48.0 KHz
    Compression mode                         : Lossy
    Stream size                              : 318 MiB (30%)
    Encoded date                             : UTC 2016-04-22 21:44:56
    Tagged date                              : UTC 2016-04-22 23:58:13
    
    




    Geschützter Bereich - Bedanke dich beim Poster, um den Bereich sehen zu können
    Hier erfährst Du wie Du Dich bedanken kannst oder werde jetzt Premium Mitglied ab einer Spende von 5€ und erhalte sofortigen Zugriff auf den Downloadbereich!

    [Links sind nur für registrierte und aktivierte Nutzer sichtbar. Klicke hier um dich zu registrieren.]

    [Links sind nur für registrierte und aktivierte Nutzer sichtbar. Klicke hier um dich zu registrieren.]
    Support über PN
    =
    AKTIV

  2. 59 Benutzer sagen Danke:

    Anzeigen

    0815Reset (3. October 2016),Aikanary (27. April 2016),alucat (13. May 2016),Anuy (17. July 2016),Asuka Langley (25. April 2016),bohne (10. July 2016),Crash333 (5. June 2016),Curo (Gestern),Denetonne (19. May 2016),DJPAUL1990 (12. July 2016),doN1337 (25. August 2016),Ecos (10. May 2016),harry9x (25. April 2016),herrwefer (5. June 2016),hraver (30. October 2016),Kartox (4. May 2016),kenschi (19. June 2016),KingDing15 (8. May 2016),Kitefist (28. May 2016),KrachbumAlex (27. April 2016),LawMugen (30. October 2016),LoganKell (15. October 2016),ManunaM (4. May 2016),mar3el (22. August 2016),maximus (23. May 2016),memories88 (28. June 2016),mg2000 (1. August 2016),midnighter (11. August 2016),Mika-hime (20. July 2016),Modular24 (2. August 2016),moflippa (29. April 2016),Moltisanti (29. July 2016),nemo (22. June 2016),old nick (24. April 2016),OtakuTim (25. April 2016),Physignatily (24. May 2016),pltn (30. October 2016),Praxas (28. April 2016),prinzvegeta (31. May 2016),PsychoKnuffi (4. May 2016),Raziel (24. April 2016),Ronae (24. April 2016),Runata (4. May 2016),Sandy7580 (24. April 2016),SciTeC (22. June 2016),Scorns (Gestern),SenseiSasone (5. October 2016),Sergej10 (6. October 2016),sharline (27. April 2016),Shirobaka (26. September 2016),ssj3shad (5. October 2016),Taiho (6. May 2016),Tekk (24. April 2016),Toad (31. July 2016),toter Fisch (17. September 2016),UndeadBan (13. July 2016),undertaker0951 (10. September 2016),Usumaina (23. May 2016),Wölfchen (24. April 2016)

Lesezeichen

Berechtigungen

  • Neue Themen erstellen: Nein
  • Themen beantworten: Nein
  • Anhänge hochladen: Nein
  • Beiträge bearbeiten: Nein
  •  

1 2 3 4 5 6 7 8 9 10 11 12 13 14 15 16 17 18 19 20 21 22 23 24 25 26 27 28 29 30 31 32 33 34 35 36 37 38 39 40 41 42 43 44 45 46 47 48 49 50 51 52 53 54 55 56 57 58 59 60 61 62 63 64 65 66 67 68 69 70 71 72 73 74 75 76 77 78 79 80 81 82 83 84 85 86 87 88 89 90 91 92 93 94 95 96 97 98 99 100 101 102 103 104 105 106 107 108 109 110 111 112 113 114 115 116 117 118 119 120 121 122 123 124 125 126 127 128 129 130 131 132 133 134 135 136 137 138 139 140 141 142 143 144 145 146 147 148 149 150 151 152 153 154 155 156 157 158