Ergebnis 1 bis 1 von 1

Thema: Koukaku Kidoutai (1995) [Ger-Jap-Dub][Ger-Sub][720p/1080p][BluRay] - STARS

Dieser Thread wurde noch nicht bewertet. Bewerte ihn doch, wenn er dir gefällt!
  1. #1
    United we Stand Avatar von 00Ryuji00
    Registriert seit
    Oct 2012
    Beiträge
    3.902
    Punkte
    99.823
    Errungenschaften:
    TomodachisGang LeaderHikikomoriTagger Amateur50000 Erfahrungspunkte

    Koukaku Kidoutai (1995) [Ger-Jap-Dub][Ger-Sub][720p/1080p][BluRay] - STARS


    Koukaku Kidoutai
    攻殻機動隊
    Ghost in the Shell






    Kurzbeschreibung:
    Zitat Zitat von AniSearch.com
    In naher Zukunft greifen Medienkonzerne nach den Sternen, Elektronen und Lichtströmen im Universum. Doch hat fortgeschrittene Computerisierung Nationen und ethische Gruppen noch nicht ausgelöscht.

    Es sind die Worte eines Unbekannten, die den Zuschauer direkt zu Anfang fragen lassen: Was erwartet mich? Der Anime beginnt damit, dass das Büro eines Diplomaten von der Polizei gestürmt wird, da dieser jemandem politisches Asyl gewährt. Als er sich ergibt, wird er erschossen. Seine Mörderin flieht, indem sie einfach vom Fenster des Hochhauses in die Tiefe fliegt. Schon jetzt zeigt sich, dass es sich nicht um einen normalen Menschen handeln kann, denn weder Tarnung, noch Anschlüsse am Hals sind menschlich. Es handelt sich bei ihr um einen Cyborg, einen Menschen mit -bis auf das Gehirn- komplett synthetischem Körper. Wir befinden uns in Japan, im Jahr 2029, in dem Cyborgs und künstliche Intelligenzen längst Alltag geworden sind, doch eines existiert immer noch: die politischen Systeme, die korrupt und schwach sind. Die Geschichte handelt von einer japanischen Anti-Terror Einheit, deren Ziel es ist die negativen Seiten dieses Fortschrittes zu bekämpfen. Durch die breite Verwendung von "Cyberbrains", elektronischen Zugängen zum Gehirn, ist es längst möglich geworden, sich in das Gehirn eines Menschen einzuhacken und ihn für kriminelle Machenschaften zu missbrauchen. Motoko Kusanagi ist ebenfalls ein Cyborg und Anführerin besagter Einheit – sie und ihr Team geraten in ein großes System von politischen Zusammenhängen und Machtspielen und laufen Gefahr, mehr und mehr selber nur zu Schachfiguren in diesem Spiel zu werden. Alles scheint so, als ob ein Superhacker namens Puppetmaster dies alles steuert und Motoko ahnt noch nicht, dass ihre Rolle viel größer zu sein scheint, als sie anfänglich angenommen hat.


    Spieldauer: 79min
    Genre: Actiondrama
    Nebengenres: Action, Drama, Krimi, Psychodrama, Scifi
    Jahr: 1995
    Sprache: Deutsch, Japanisch
    Untertitel: Deutsch
    Größe pro Folge: ~3.81 GiB ~6.88 GiB
    Episodenanzahl: 1/1
    Format: MKV
    Auflösung: 688p (1.85:1), 1008p (1.85:1)
    Videocodec: x264 (AVC)
    Audiocodec: DTS, AC-3
    Releasegruppe: STARS
    Hoster: Share-Online, Uploaded


    MediaInfo
    720p
    Code:
    
    Format                                   : Matroska
    Format version                           : Version 4 / Version 2
    File size                                : 3.81 GiB
    Duration                                 : 1h 22mn
    Overall bit rate                         : 6 605 Kbps
    Movie name                               : GHOST IN THE SHELL - 720P - STARS
    Encoded date                             : UTC 2014-12-09 23:21:35
    Writing application                      : mkvmerge v6.1.0 ('Old Devil') built on Mar  2 2013 14:32:37
    Writing library                          : libebml v1.3.0 + libmatroska v1.4.0
    
    Video
    ID                                       : 1
    Format                                   : AVC
    Format/Info                              : Advanced Video Codec
    Format profile                           : [email protected]
    Format settings, CABAC                   : Yes
    Format settings, ReFrames                : 5 frames
    Codec ID                                 : V_MPEG4/ISO/AVC
    Duration                                 : 1h 22mn
    Bit rate                                 : 3 007 Kbps
    Width                                    : 1 280 pixels
    Height                                   : 688 pixels
    Display aspect ratio                     : 1.85:1
    Frame rate mode                          : Constant
    Frame rate                               : 23.976 fps
    Color space                              : YUV
    Chroma subsampling                       : 4:2:0
    Bit depth                                : 8 bits
    Scan type                                : Progressive
    Bits/(Pixel*Frame)                       : 0.142
    Stream size                              : 1.74 GiB (46%)
    Title                                    : GHOST IN THE SHELL - 720P - STARS
    Writing library                          : x264 core 142 r2491 24e4fed
    Encoding settings                        : cabac=1 / ref=5 / deblock=1:0:0 / analyse=0x3:0x133 / me=umh / subme=7 / psy=1 / psy_rd=1.00:0.00 / mixed_ref=1 / me_range=16 / chroma_me=1 / trellis=1 / 8x8dct=1 / cqm=0 / deadzone=21,11 / fast_pskip=0 / chroma_qp_offset=-2 / threads=6 / lookahead_threads=1 / sliced_threads=0 / nr=0 / decimate=1 / interlaced=0 / bluray_compat=0 / constrained_intra=0 / bframes=3 / b_pyramid=2 / b_adapt=1 / b_bias=0 / direct=1 / weightb=1 / open_gop=0 / weightp=1 / keyint=250 / keyint_min=23 / scenecut=40 / intra_refresh=0 / rc_lookahead=40 / rc=crf / mbtree=1 / crf=20.0 / qcomp=0.60 / qpmin=0 / qpmax=69 / qpstep=4 / ip_ratio=1.40 / aq=1:1.00
    Default                                  : Yes
    Forced                                   : Yes
    
    Audio #1
    ID                                       : 2
    Format                                   : DTS
    Format/Info                              : Digital Theater Systems
    Mode                                     : 16
    Format settings, Endianness              : Big
    Codec ID                                 : A_DTS
    Duration                                 : 1h 22mn
    Bit rate mode                            : Constant
    Bit rate                                 : 1 509 Kbps
    Channel(s)                               : 6 channels
    Channel positions                        : Front: L C R, Side: L R, LFE
    Sampling rate                            : 48.0 KHz
    Bit depth                                : 24 bits
    Compression mode                         : Lossy
    Stream size                              : 892 MiB (23%)
    Title                                    : GER - DTS (HERMES)
    Language                                 : German
    Default                                  : Yes
    Forced                                   : Yes
    
    Audio #2
    ID                                       : 3
    Format                                   : AC-3
    Format/Info                              : Audio Coding 3
    Mode extension                           : CM (complete main)
    Format settings, Endianness              : Big
    Codec ID                                 : A_AC3
    Duration                                 : 1h 22mn
    Bit rate mode                            : Constant
    Bit rate                                 : 448 Kbps
    Channel(s)                               : 6 channels
    Channel positions                        : Front: L C R, Side: L R, LFE
    Sampling rate                            : 48.0 KHz
    Compression mode                         : Lossy
    Stream size                              : 265 MiB (7%)
    Title                                    : GER - AC3 (SPLENDID)
    Language                                 : German
    Default                                  : No
    Forced                                   : No
    
    Audio #3
    ID                                       : 4
    Format                                   : DTS
    Format/Info                              : Digital Theater Systems
    Format profile                           : ES
    Mode                                     : 16
    Format settings, Endianness              : Big
    Codec ID                                 : A_DTS
    Duration                                 : 1h 22mn
    Bit rate mode                            : Constant
    Bit rate                                 : 1 509 Kbps
    Channel(s)                               : 7 channels / 6 channels
    Channel positions                        : Front: L C R, Side: L R, Back: C, LFE / Front: L C R, Side: L R, LFE
    Sampling rate                            : 48.0 KHz
    Bit depth                                : 24 bits
    Compression mode                         : Lossy
    Stream size                              : 892 MiB (23%)
    Title                                    : JPN - DTS
    Language                                 : Japanese
    Default                                  : No
    Forced                                   : No
    
    Text #1
    ID                                       : 5
    Format                                   : UTF-8
    Codec ID                                 : S_TEXT/UTF8
    Codec ID/Info                            : UTF-8 Plain Text
    Title                                    : GER - FORCED
    Language                                 : German
    Default                                  : Yes
    Forced                                   : Yes
    
    Text #2
    ID                                       : 6
    Format                                   : UTF-8
    Codec ID                                 : S_TEXT/UTF8
    Codec ID/Info                            : UTF-8 Plain Text
    Title                                    : GER - SUBS
    Language                                 : German
    Default                                  : No
    Forced                                   : No
    
    Menu
    00:00:00.000                             : en:00:00:00.000
    00:11:11.254                             : en:00:11:11.254
    00:24:19.708                             : en:00:24:19.708
    00:36:52.127                             : en:00:36:52.127
    00:51:28.294                             : en:00:51:28.294
    01:05:49.154                             : en:01:05:49.154
    
    


    1080p
    Code:
    
    Format                                   : Matroska
    Format version                           : Version 4 / Version 2
    File size                                : 6.88 GiB
    Duration                                 : 1h 22mn
    Overall bit rate                         : 11.9 Mbps
    Movie name                               : GHOST IN THE SHELL - 1080P - STARS
    Encoded date                             : UTC 2014-12-09 23:26:48
    Writing application                      : mkvmerge v6.1.0 ('Old Devil') built on Mar  2 2013 14:32:37
    Writing library                          : libebml v1.3.0 + libmatroska v1.4.0
    
    Video
    ID                                       : 1
    Format                                   : AVC
    Format/Info                              : Advanced Video Codec
    Format profile                           : [email protected]
    Format settings, CABAC                   : Yes
    Format settings, ReFrames                : 4 frames
    Codec ID                                 : V_MPEG4/ISO/AVC
    Duration                                 : 1h 22mn
    Bit rate                                 : 8 215 Kbps
    Width                                    : 1 856 pixels
    Height                                   : 1 008 pixels
    Display aspect ratio                     : 1.85:1
    Frame rate mode                          : Constant
    Frame rate                               : 23.976 fps
    Color space                              : YUV
    Chroma subsampling                       : 4:2:0
    Bit depth                                : 8 bits
    Scan type                                : Progressive
    Bits/(Pixel*Frame)                       : 0.183
    Stream size                              : 4.74 GiB (69%)
    Title                                    : GHOST IN THE SHELL - 1080P - STARS
    Writing library                          : x264 core 142 r2491 24e4fed
    Encoding settings                        : cabac=1 / ref=4 / deblock=1:0:0 / analyse=0x3:0x133 / me=umh / subme=7 / psy=1 / psy_rd=1.00:0.00 / mixed_ref=1 / me_range=16 / chroma_me=1 / trellis=1 / 8x8dct=1 / cqm=0 / deadzone=21,11 / fast_pskip=0 / chroma_qp_offset=-2 / threads=6 / lookahead_threads=1 / sliced_threads=0 / nr=0 / decimate=1 / interlaced=0 / bluray_compat=0 / constrained_intra=0 / bframes=3 / b_pyramid=2 / b_adapt=1 / b_bias=0 / direct=1 / weightb=1 / open_gop=0 / weightp=1 / keyint=250 / keyint_min=23 / scenecut=40 / intra_refresh=0 / rc_lookahead=40 / rc=crf / mbtree=1 / crf=20.0 / qcomp=0.60 / qpmin=0 / qpmax=69 / qpstep=4 / ip_ratio=1.40 / aq=1:1.00
    Default                                  : Yes
    Forced                                   : Yes
    
    Audio #1
    ID                                       : 2
    Format                                   : DTS
    Format/Info                              : Digital Theater Systems
    Mode                                     : 16
    Format settings, Endianness              : Big
    Codec ID                                 : A_DTS
    Duration                                 : 1h 22mn
    Bit rate mode                            : Constant
    Bit rate                                 : 1 509 Kbps
    Channel(s)                               : 6 channels
    Channel positions                        : Front: L C R, Side: L R, LFE
    Sampling rate                            : 48.0 KHz
    Bit depth                                : 24 bits
    Compression mode                         : Lossy
    Stream size                              : 892 MiB (13%)
    Title                                    : GER - DTS (HERMES)
    Language                                 : German
    Default                                  : Yes
    Forced                                   : Yes
    
    Audio #2
    ID                                       : 3
    Format                                   : AC-3
    Format/Info                              : Audio Coding 3
    Mode extension                           : CM (complete main)
    Format settings, Endianness              : Big
    Codec ID                                 : A_AC3
    Duration                                 : 1h 22mn
    Bit rate mode                            : Constant
    Bit rate                                 : 448 Kbps
    Channel(s)                               : 6 channels
    Channel positions                        : Front: L C R, Side: L R, LFE
    Sampling rate                            : 48.0 KHz
    Compression mode                         : Lossy
    Stream size                              : 265 MiB (4%)
    Title                                    : GER - AC3 (SPLENDID)
    Language                                 : German
    Default                                  : No
    Forced                                   : No
    
    Audio #3
    ID                                       : 4
    Format                                   : DTS
    Format/Info                              : Digital Theater Systems
    Format profile                           : ES
    Mode                                     : 16
    Format settings, Endianness              : Big
    Codec ID                                 : A_DTS
    Duration                                 : 1h 22mn
    Bit rate mode                            : Constant
    Bit rate                                 : 1 509 Kbps
    Channel(s)                               : 7 channels / 6 channels
    Channel positions                        : Front: L C R, Side: L R, Back: C, LFE / Front: L C R, Side: L R, LFE
    Sampling rate                            : 48.0 KHz
    Bit depth                                : 24 bits
    Compression mode                         : Lossy
    Stream size                              : 892 MiB (13%)
    Title                                    : JPN - DTS
    Language                                 : Japanese
    Default                                  : No
    Forced                                   : No
    
    Text #1
    ID                                       : 5
    Format                                   : UTF-8
    Codec ID                                 : S_TEXT/UTF8
    Codec ID/Info                            : UTF-8 Plain Text
    Title                                    : GER - FORCED
    Language                                 : German
    Default                                  : Yes
    Forced                                   : Yes
    
    Text #2
    ID                                       : 6
    Format                                   : UTF-8
    Codec ID                                 : S_TEXT/UTF8
    Codec ID/Info                            : UTF-8 Plain Text
    Title                                    : GER - SUBS
    Language                                 : German
    Default                                  : No
    Forced                                   : No
    
    Menu
    00:00:00.000                             : en:00:00:00.000
    00:11:11.254                             : en:00:11:11.254
    00:24:19.708                             : en:00:24:19.708
    00:36:52.127                             : en:00:36:52.127
    00:51:28.294                             : en:00:51:28.294
    01:05:49.154                             : en:01:05:49.154
    
    






    Geschützter Bereich - Bedanke dich beim Poster, um den Bereich sehen zu können
    Hier erfährst Du wie Du Dich bedanken kannst oder werde jetzt Premium Mitglied ab einer Spende von 5€ und erhalte sofortigen Zugriff auf den Downloadbereich!

    [Links sind nur für registrierte und aktivierte Nutzer sichtbar. Klicke hier um dich zu registrieren.]
    !!!Alle Anliegen bezüglich Uploads werden nur mit direktem Threadlink zum Angebot bearbeitet!!!

    Re-Uploadanfragen nur per PN - Ihr könnt mir auch Listen schicken

    Re-Uploads erfolgen meist innerhalb 24h, kann aber auch bis zu 7 Tage dauern

    [Links sind nur für registrierte und aktivierte Nutzer sichtbar. Klicke hier um dich zu registrieren.] | [Links sind nur für registrierte und aktivierte Nutzer sichtbar. Klicke hier um dich zu registrieren.] | >[Links sind nur für registrierte und aktivierte Nutzer sichtbar. Klicke hier um dich zu registrieren.]<
    [Links sind nur für registrierte und aktivierte Nutzer sichtbar. Klicke hier um dich zu registrieren.]

  2. 29 Benutzer sagen Danke:

    Asturaetus (7. August 2016),Asuka Langley (26. July 2016),Busenpeter (22. November 2016),chopper23 (29. July 2016),ChristianLake (26. July 2016),CKSI (26. November 2016),freakwatcher (27. July 2016),Invader_Zim (25. July 2016),Jack (6. August 2016),mar3el (31. July 2016),Maskulin (5. August 2016),midnighter (30. July 2016),midori-iro (24. October 2016),nemo (5. August 2016),Nibu (1. August 2016),Porco (25. July 2016),rofler86 (25. July 2016),sanbu (7. November 2016),SantaKlaus (25. July 2016),Scorns (14. November 2016),Scrappedmaster (14. August 2016),Sopar (24. September 2016),Sora (25. July 2016),Superzorro (8. September 2016),Tsunderekrieger (30. July 2016),Type-0 (26. November 2016),T§sseract (31. August 2016),xMowna (16. September 2016),Zapzerap (23. October 2016)

Lesezeichen

Berechtigungen

  • Neue Themen erstellen: Nein
  • Themen beantworten: Nein
  • Anhänge hochladen: Nein
  • Beiträge bearbeiten: Nein
  •  

1 2 3 4 5 6 7 8 9 10 11 12 13 14 15 16 17 18 19 20 21 22 23 24 25 26 27 28 29 30 31 32 33 34 35 36 37 38 39 40 41 42 43 44 45 46 47 48 49 50 51 52 53 54 55 56 57 58 59 60 61 62 63 64 65 66 67 68 69 70 71 72 73 74 75 76 77 78 79 80 81 82 83 84 85 86 87 88 89 90 91 92 93 94 95 96 97 98 99 100 101 102 103 104 105 106 107 108 109 110 111 112 113 114 115 116 117 118 119 120 121 122 123 124 125 126 127 128 129 130 131 132 133 134 135 136 137 138 139 140 141 142 143 144 145 146 147 148 149 150 151 152 153 154 155 156 157 158