Ergebnis 1 bis 2 von 2

Thema: The Last - Naruto the Movie [Film 7][JapDub][GerSub][720p/1080p][HDTV]

Dieser Thread wurde durchschnittlich mit 4 Sternen bewertet, wobei 1 Stern die schlechteste und 5 Sterne die beste Bewertung ist. Es haben insgesamt 1 Mitglieder eine Bewertung abgegeben.

  1. #1
    Kami-sama Avatar von galudo
    Registriert seit
    Mar 2015
    Beiträge
    1.371
    Punkte
    26.002
    Errungenschaften:
    TomodachisTagger ProfiHyperaktivSenpaiGang Leader

    The Last - Naruto the Movie [Film 7][JapDub][GerSub][720p/1080p][HDTV]

    The Last: Naruto the Movie
    Za Rasuto -Naruto za Mūbī-
    THE LAST NARUTO THE MOVIE
    Naruto Shippuuden Movie 7



    Kurzbeschreibung
    Diesmal muss der Ninja Naruto gegen einen Widersacher antreten, der einem außerirdischen Clan entstammt und den Mond auf die Erde stürzen lassen will, um die Menschheit für die Nutzung von Chakra zu bestrafen.

    Es ist der erste "Naruto"-Film, der zum offiziellen Manga-Kanon – also zur Geschichte der Comics – gezählt wird.
    Format: MP4
    Sprache: Japanisch
    Untertitel: Deutsch
    Größe bei 1080p: ~ 4,93 GB
    Größe bei 720p: ~ 1 GB
    Dauer: ~ 112 Minuten
    Jahr: 2014
    Video: 720p & 1080p
    Source: HDTV
    Subgroup / Releasegroup: Pure-Anime bei 720p | Anime-Subways bei 1080p
    Hoster: Share-Online| Uploaded
    Passwort: siehe unten


    Datei-Info
    Spoiler
    1080p
    Code:
    General
    Format                         : MPEG-4
    Format profile                 : Base Media
    Codec ID                       : isom
    File size                      : 2.56 GiB
    Duration                       : 59mn 41s
    Overall bit rate mode          : Variable
    Overall bit rate               : 6 143 Kbps
    Writing application            : Lavf56.36.100
    
    Video
    ID                             : 1
    Format                         : AVC
    Format/Info                    : Advanced Video Codec
    Format profile                 : [email protected]
    Format settings, CABAC         : Yes
    Format settings, ReFrames      : 5 frames
    Codec ID                       : avc1
    Codec ID/Info                  : Advanced Video Coding
    Duration                       : 59mn 41s
    Bit rate                       : 6 000 Kbps
    Width                          : 1 832 pixels
    Height                         : 1 032 pixels
    Display aspect ratio           : 16:9
    Frame rate mode                : Constant
    Frame rate                     : 23.976 fps
    Color space                    : YUV
    Chroma subsampling             : 4:2:0
    Bit depth                      : 8 bits
    Scan type                      : Progressive
    Bits/(Pixel*Frame)             : 0.132
    Stream size                    : 2.50 GiB (97%)
    Writing library                : x264 core 146 r2538 121396c
    Encoding settings              : cabac=1 / ref=5 / deblock=1:0:0 / analyse=0x3:0x113 / me=umh / subme=8 / psy=1 / psy_rd=1.00:0.00 / mixed_ref=1 / me_range=8 / chroma_me=1 / trellis=1 / 8x8dct=1 / cqm=0 / deadzone=21,11 / fast_pskip=1 / chroma_qp_offset=-2 / threads=4 / lookahead_threads=1 / sliced_threads=0 / nr=0 / decimate=1 / interlaced=0 / bluray_compat=0 / constrained_intra=0 / bframes=3 / b_pyramid=2 / b_adapt=2 / b_bias=0 / direct=3 / weightb=1 / open_gop=0 / weightp=2 / keyint=240 / keyint_min=23 / scenecut=40 / intra_refresh=0 / rc_lookahead=50 / rc=2pass / mbtree=1 / bitrate=6000 / ratetol=1.0 / qcomp=0.60 / qpmin=0 / qpmax=69 / qpstep=4 / cplxblur=20.0 / qblur=0.5 / vbv_maxrate=9000 / vbv_bufsize=24000 / nal_hrd=none / filler=0 / ip_ratio=1.40 / aq=1:1.00
    
    Audio
    ID                             : 2
    Format                         : AAC
    Format/Info                    : Advanced Audio Codec
    Format profile                 : LC
    Codec ID                       : 40
    Duration                       : 59mn 41s
    Duration_LastFrame             : -1ms
    Bit rate mode                  : Variable
    Bit rate                       : 152 Kbps
    Maximum bit rate               : 9 000 Kbps
    Channel(s)                     : 2 channels
    Channel positions              : Front: L R
    Sampling rate                  : 44.1 KHz
    Compression mode               : Lossy
    Stream size                    : 64.9 MiB (2%)

    720p
    Code:
    General
    Format                         : MPEG-4
    Format profile                 : Base Media
    Codec ID                       : isom
    File size                      : 1 003 MiB
    Duration                       : 1h 52mn
    Overall bit rate mode          : Variable
    Overall bit rate               : 1 252 Kbps
    
    Video
    ID                             : 1
    Format                         : AVC
    Format/Info                    : Advanced Video Codec
    Format profile                 : [email protected]
    Format settings, CABAC         : Yes
    Format settings, ReFrames      : 4 frames
    Codec ID                       : avc1
    Codec ID/Info                  : Advanced Video Coding
    Duration                       : 1h 52mn
    Bit rate                       : 1 096 Kbps
    Maximum bit rate               : 10.9 Mbps
    Width                          : 1 280 pixels
    Height                         : 720 pixels
    Display aspect ratio           : 16:9
    Frame rate mode                : Constant
    Frame rate                     : 23.976 fps
    Color space                    : YUV
    Chroma subsampling             : 4:2:0
    Bit depth                      : 8 bits
    Scan type                      : Progressive
    Bits/(Pixel*Frame)             : 0.050
    Stream size                    : 878 MiB (88%)
    Writing library                : x264 core 146 r2538 121396c
    Encoding settings              : cabac=1 / ref=2 / deblock=1:0:0 / analyse=0x3:0x113 / me=hex / subme=4 / psy=1 / psy_rd=1.00:0.00 / mixed_ref=0 / me_range=16 / chroma_me=1 / trellis=1 / 8x8dct=1 / cqm=0 / deadzone=21,11 / fast_pskip=1 / chroma_qp_offset=0 / threads=12 / lookahead_threads=3 / sliced_threads=0 / nr=0 / decimate=1 / interlaced=0 / bluray_compat=0 / constrained_intra=0 / bframes=3 / b_pyramid=2 / b_adapt=1 / b_bias=0 / direct=1 / weightb=1 / open_gop=0 / weightp=1 / keyint=240 / keyint_min=23 / scenecut=40 / intra_refresh=0 / rc_lookahead=20 / rc=2pass / mbtree=1 / bitrate=1096 / ratetol=1.0 / qcomp=0.60 / qpmin=0 / qpmax=69 / qpstep=4 / cplxblur=20.0 / qblur=0.5 / ip_ratio=1.40 / aq=1:1.00
    
    Audio
    ID                             : 2
    Format                         : AAC
    Format/Info                    : Advanced Audio Codec
    Format profile                 : LC
    Codec ID                       : 40
    Duration                       : 1h 52mn
    Bit rate mode                  : Variable
    Bit rate                       : 152 Kbps
    Maximum bit rate               : 201 Kbps
    Channel(s)                     : 2 channels
    Channel positions              : Front: L R
    Sampling rate                  : 48.0 KHz
    Compression mode               : Lossy
    Stream size                    : 122 MiB (12%)



    2 Parts bei 720p, 6 Parts bei 1080p

    || Download & Passwort ||


    Geschützter Bereich - Bedanke dich beim Poster, um den Bereich sehen zu können
    Hier erfährst Du wie Du Dich bedanken kannst oder werde jetzt Premium Mitglied ab einer Spende von 5€ und erhalte sofortigen Zugriff auf den Downloadbereich!

    Weiteres von Naruto Shippuden:
    [Links sind nur für registrierte und aktivierte Nutzer sichtbar. Klicke hier um dich zu registrieren.]
    [Links sind nur für registrierte und aktivierte Nutzer sichtbar. Klicke hier um dich zu registrieren.]
    [Links sind nur für registrierte und aktivierte Nutzer sichtbar. Klicke hier um dich zu registrieren.]
    [Links sind nur für registrierte und aktivierte Nutzer sichtbar. Klicke hier um dich zu registrieren.]
    [Links sind nur für registrierte und aktivierte Nutzer sichtbar. Klicke hier um dich zu registrieren.]
    [Links sind nur für registrierte und aktivierte Nutzer sichtbar. Klicke hier um dich zu registrieren.]

    Geändert von galudo (28. July 2016 um 15:50 Uhr)
    SUPPORT UND REUP ANFRAGEN NUR >> [Links sind nur für registrierte und aktivierte Nutzer sichtbar. Klicke hier um dich zu registrieren.] <<
    Bitte IMMER den Thread-Link mitschicken.

  2. 161 Benutzer sagen Danke:

    Anzeigen

    $$conan$$ (21. November 2016),Akio (15. January 2016),AKira_Hidaka (11. June 2016),Alaric (24. August 2015),alecander (6. August 2015),Alucard1412 (11. February 2016),AnimeFanBoy (20. November 2016),AnzuHirota (28. March 2016),arginator (5. October 2015),BeatZeps (6. July 2016),beckiiyy1 (2. September 2015),Belbo (4. June 2016),bendley (27. April 2016),Biyou1995 (15. November 2015),Black Lotus (30. August 2016),BlackGoldSaw (24. September 2015),BlackMekkor (17. February 2016),BlackPhoenix (15. February 2016),Blocker (28. July 2015),bumer12 (5. November 2015),ch1w4y (19. June 2016),chewbacka (16. October 2016),Chrissi89 (31. July 2015),Ciddy (30. July 2015),classius (8. January 2016),Cloud Strife (31. August 2015),cob92 (19. October 2015),coldbears48 (12. June 2016),DarkTerminator (25. March 2016),darkwarrior (28. July 2015),DarthToast (15. August 2015),DeathBeast88 (28. July 2015),DedSec (30. July 2015),dEnniiS1204 (16. September 2015),Dipack (12. September 2015),Djangorain (5. August 2016),DJPAUL1990 (2. August 2015),donma (27. July 2015),dragonking87 (29. July 2015),drparnassus (28. July 2015),Dylan (17. January 2016),e4exuberance (4. September 2015),Ecos (2. May 2016),Esyldra (15. August 2015),farmerjoe (28. July 2015),FengShui (23. July 2016),Flint (8. October 2015),Frag0042 (28. July 2015),funkythong (11. August 2015),Gaara (12. August 2015),GagaManamanga (21. November 2016),Gatti1983 (8. January 2016),gbergmann (23. March 2016),Ghostraven (4. August 2016),Gorshi (5. October 2016),Haxz0r (27. July 2015),Heroic (14. August 2016),herrwefer (18. December 2015),HerzogZepar (16. September 2016),Hobbitgraf (12. September 2015),Hollow-Ichigo (6. December 2015),Holyy (2. December 2015),huntercity (3. March 2016),iCapuz (3. August 2015),Icke (1. May 2016),ippo (15. August 2015),IRazziCz (22. April 2016),IshiFuroito (26. September 2015),Jamaz (22. December 2015),jhabsdakhvsdjva (16. August 2015),Kaldo (10. February 2016),kandanderhem (13. June 2016),kanita (22. September 2015),Killua (28. July 2015),Kira7 (27. July 2015),Kita_Kitsune (3. September 2015),Kitesune (24. August 2015),Kodama1989 (19. September 2015),Kokujou (27. July 2015),Kradus (11. November 2015),krasserGaul (27. July 2015),Kurzey (2. September 2015),Kyl3 (11. September 2015),kyrahiko_inactive (2. August 2015),Lautrerbomber (30. September 2016),LawMugen (20. August 2015),LawrenceKraft (13. December 2015),LetsPhoenixPlay (15. August 2015),LinkofLux (14. September 2015),madmax916sps (29. January 2016),MasterTroll (19. March 2016),Memati53 (23. September 2015),Messenjah (23. April 2016),midnighter (4. August 2015),mischacraft (6. August 2015),MJMax (5. August 2015),morpheus243 (1. July 2016),MrSuicideSheeep (1. August 2015),Nanashi (21. October 2015),nemo (6. December 2015),neon (31. July 2015),Nerobix (8. November 2015),Nesal (13. November 2015),Nexus777 (29. August 2015),Niggoh23 (10. January 2016),Nillus (16. October 2015),noizmaker (16. December 2015),Nyarlathothep (16. August 2015),Obiwan Shinobi (23. August 2015),onlystarz (27. July 2015),OtakuTim (1. November 2015),Physignatily (2. August 2015),prinzvegeta (3. December 2015),Puckano (2. October 2015),realmadridcf (6. October 2015),Reaper1 (2. September 2015),redithebat (27. November 2016),riku14466 (24. October 2016),Rin58 (11. February 2016),Ruffy121 (28. July 2015),Sandy7580 (15. August 2015),SciTeC (5. August 2015),SenseiSasone (12. August 2015),Seregil (28. July 2015),Shady50 (31. January 2016),sharline (1. November 2015),shinanhan (3. January 2016),shokinn (10. February 2016),showtekia (8. August 2015),Sildurias (1. November 2015),Smitecrawler (22. July 2016),SONNYxq (27. July 2015),spielmacher9 (2. August 2015),Spotix (27. July 2015),Steinauge (12. March 2016),supelco (15. August 2016),Swabo1 (4. October 2015),SwaggerMan (10. August 2015),sweetpunky (15. August 2015),syman8989 (28. July 2016),Tartarus (29. July 2015),Tenma90 (25. August 2015),TesserLP (12. September 2015),Tidus18 (30. July 2015),tigerhai (5. June 2016),tohotono1987 (16. September 2015),TrM (23. August 2015),Tysar (28. July 2015),undertaker0951 (3. August 2016),VatosLocos (30. August 2015),videoseven (30. July 2015),VNRG (26. August 2015),VoidOfGalaxy (16. August 2015),volker027 (12. September 2015),WaRRioR (16. December 2015),wirschiii (31. July 2015),Wölfchen (6. July 2016),xxgamerxx596 (14. August 2015),Yxcvbnm (23. August 2015),Zapzerap (18. August 2015),Zinnderella (15. August 2015)

  3. #2
    Kami-sama Avatar von galudo
    Registriert seit
    Mar 2015
    Beiträge
    1.371
    Punkte
    26.002
    Errungenschaften:
    TomodachisTagger ProfiHyperaktivSenpaiGang Leader

    AW: The Last - Naruto the Movie [Film 7][JapDub][GerSub][720p/1080p][HDTV]

    1080p Version des Films hinzugefügt, Sub von Anime-Subways
    SUPPORT UND REUP ANFRAGEN NUR >> [Links sind nur für registrierte und aktivierte Nutzer sichtbar. Klicke hier um dich zu registrieren.] <<
    Bitte IMMER den Thread-Link mitschicken.

  4. 2 Benutzer sagen Danke:

    Reaper1 (2. September 2015),volker027 (12. September 2015)

Stichworte

Lesezeichen

Berechtigungen

  • Neue Themen erstellen: Nein
  • Themen beantworten: Nein
  • Anhänge hochladen: Nein
  • Beiträge bearbeiten: Nein
  •  

1 2 3 4 5 6 7 8 9 10 11 12 13 14 15 16 17 18 19 20 21 22 23 24 25 26 27 28 29 30 31 32 33 34 35 36 37 38 39 40 41 42 43 44 45 46 47 48 49 50 51 52 53 54 55 56 57 58 59 60 61 62 63 64 65 66 67 68 69 70 71 72 73 74 75 76 77 78 79 80 81 82 83 84 85 86 87 88 89 90 91 92 93 94 95 96 97 98 99 100 101 102 103 104 105 106 107 108 109 110 111 112 113 114 115 116 117 118 119 120 121 122 123 124 125 126 127 128 129 130 131 132 133 134 135 136 137 138 139 140 141 142 143 144 145 146 147 148 149 150 151 152 153 154 155 156 157 158