Ergebnis 1 bis 2 von 2

Thema: M.D. Geist [2/2][JapGerEngDub][GerEngSub][DVDRip]

Dieser Thread wurde noch nicht bewertet. Bewerte ihn doch, wenn er dir gefällt!
  1. #1
    Erfahrener Otaku Avatar von ohlong
    Registriert seit
    Sep 2013
    Ort
    Im Herzen Deutschlands
    Beiträge
    151
    Punkte
    5.807
    Errungenschaften:
    TomodachisTagger Profi5000 ErfahrungspunkteHikikomori

    M.D. Geist [2/2][JapGerEngDub][GerEngSub][DVDRip]



    OVA1
    M.D. Geist
    Soukihei MD Geist
    装鬼兵MDガイスト

    OVA2
    M.D. Geist II - Death Force
    Soukihei MD Geist 2
    装鬼兵MDガイスト ~デスフォース~





    Kurzbeschreibung
    M.D. Geist
    Auf dem Planeten Jerra bekämpfen sich die Regierungstruppen und die aufständischen Nexron in einem Krieg, den niemand gewinnen kann. Die Regierungstruppen setzen den Bio-Klon M.D. Geist ein. Wegen seiner außerordentlichen Gewalttätigkeit wird Geist aber selbst zur Gefahr und in einem Satelliten in den Orbit verbannt. Als der Satellit eines Tages abstürzt, kehrt M.D. Geist nach Jerra zurück. Er kommt einer fahrenden Festung der Regierungstruppen zu Hilfe, die von Rebellen angegriffen wird. Gemeinsam dringen sie in den "Brain Palace" ein. Colonel Crutes will dort den Start des "Death Force"-Programms verhindern, das Kampfmaschinen auf Jerra loslassen soll, die jedes menschliche Leben vernichten sollen. Doch M.D. Geist hat andere Pläne.
    M.D. Geist II - Death Force
    Die OVA "MD Geist - Death Force" spielt auf einem Planeten, der ins Chaos gestürzt wurde - auf diesem Planeten wurden Killer-Maschinen ausgesetzt, die Menschen orten und bedingungslos exekutieren. Neben diesen tödlichen "Fallen" herrscht auch noch ein unerbittlicher Krieg zwischen dem Militär und den Rebellen. In der Vergangenheit wurden diverse Experimente an Soldaten durchgeführt, um die ultimative Kriegsmaschine zu erschaffen, welche sich "MD" (Most Dangerous Soldier) nennt. Jedoch schlug der Plan des perfekten Soldaten fehl und beide Typen der Serie "MD" liefen Amok und wurden auf einmal zur größten Bedrohung...

    Sprache: Japanisch, Deutsch, Englisch
    Untertitel: Deutsch, Englisch
    Genre: Action, Krieg, Sci-Fi, Endzeit, Splatter
    Source: DVD
    Format: mkv
    Video-Codec: x264
    Resolution: 640x480
    Größe: 513-523MB
    Releaser: DBNL, MeisterMutaito
    Hoster: Share-Online, Uploaded


    Technische Informationen
    M.D. Geist
    Spoiler
    Code:
    Format                                   : Matroska
    Format version                           : Version 2
    File size                                : 524 MiB
    Duration                                 : 47mn 48s
    Overall bit rate mode                    : Variable
    Overall bit rate                         : 1 531 Kbps
    Movie name                               : M.D. Geist Director's Cut
    Encoded date                             : UTC 2012-03-05 04:22:48
    Writing application                      : mkvmerge v5.0.0 ('Die Wahre Liebe') built on Sep 25 2011 20:33:49
    Writing library                          : libebml v1.2.2 + libmatroska v1.3.0
    
    Video
    ID                                       : 1
    Format                                   : AVC
    Format/Info                              : Advanced Video Codec
    Format profile                           : [email protected]
    Format settings, CABAC                   : Yes
    Format settings, ReFrames                : 2 frames
    Muxing mode                              : Header stripping
    Codec ID                                 : V_MPEG4/ISO/AVC
    Duration                                 : 47mn 48s
    Nominal bit rate                         : 1 200 Kbps
    Width                                    : 640 pixels
    Height                                   : 480 pixels
    Display aspect ratio                     : 4:3
    Frame rate                               : 23.976 fps
    Color space                              : YUV
    Chroma subsampling                       : 4:2:0
    Bit depth                                : 8 bits
    Scan type                                : Progressive
    Bits/(Pixel*Frame)                       : 0.163
    Title                                    : [DBNL][MeisterMutaito]
    Writing library                          : x264 core 54 rev 600
    Encoding settings                        : cabac=1 / ref=1 / deblock=1:3:2 / analyse=0x3:0x113 / me=hex / subme=5 / brdo=0 / mixed_ref=0 / me_range=16 / chroma_me=1 / trellis=1 / 8x8dct=1 / cqm=0 / deadzone=21,11 / chroma_qp_offset=0 / slices=1 / nr=0 / decimate=1 / mbaff=0 / bframes=2 / b_pyramid=0 / b_adapt=1 / b_bias=0 / direct=3 / wpredb=1 / bime=0 / keyint=250 / keyint_min=25 / scenecut=40 / rc=abr / bitrate=1200 / ratetol=1.0 / rceq='blurCplx^(1-qComp)' / qcomp=0.60 / qpmin=10 / qpmax=51 / qpstep=4 / ip_ratio=1.40 / pb_ratio=1.30
    Language                                 : German
    Default                                  : Yes
    Forced                                   : No
    
    Audio #1
    ID                                       : 2
    Format                                   : Vorbis
    Format settings, Floor                   : 1
    Codec ID                                 : A_VORBIS
    Duration                                 : 47mn 48s
    Bit rate mode                            : Variable
    Bit rate                                 : 112 Kbps
    Channel(s)                               : 2 channels
    Sampling rate                            : 48.0 KHz
    Compression mode                         : Lossy
    Stream size                              : 38.3 MiB (7%)
    Title                                    : Japanisch Audio
    Writing library                          : libVorbis 1.0 (UTC 2002-07-17)
    Language                                 : Japanese
    Default                                  : Yes
    Forced                                   : No
    
    Audio #2
    ID                                       : 3
    Format                                   : Vorbis
    Format settings, Floor                   : 1
    Codec ID                                 : A_VORBIS
    Duration                                 : 47mn 48s
    Bit rate mode                            : Variable
    Bit rate                                 : 112 Kbps
    Channel(s)                               : 2 channels
    Sampling rate                            : 48.0 KHz
    Compression mode                         : Lossy
    Stream size                              : 38.3 MiB (7%)
    Title                                    : Englisch Audio
    Writing library                          : libVorbis 1.0 (UTC 2002-07-17)
    Language                                 : English
    Default                                  : No
    Forced                                   : No
    
    Audio #3
    ID                                       : 4
    Format                                   : AAC
    Format/Info                              : Advanced Audio Codec
    Format profile                           : LC
    Codec ID                                 : A_AAC
    Duration                                 : 47mn 48s
    Channel(s)                               : 2 channels
    Channel positions                        : Front: L R
    Sampling rate                            : 48.0 KHz
    Compression mode                         : Lossy
    Title                                    : Deutsch Audio
    Language                                 : German
    Default                                  : No
    Forced                                   : No
    
    Text #1
    ID                                       : 5
    Format                                   : ASS
    Codec ID                                 : S_TEXT/ASS
    Codec ID/Info                            : Advanced Sub Station Alpha
    Compression mode                         : Lossless
    Title                                    : Deutsch Full
    Language                                 : German
    Default                                  : Yes
    Forced                                   : No
    
    Text #2
    ID                                       : 6
    Format                                   : ASS
    Codec ID                                 : S_TEXT/ASS
    Codec ID/Info                            : Advanced Sub Station Alpha
    Compression mode                         : Lossless
    Title                                    : Deutsch Forced
    Language                                 : German
    Default                                  : No
    Forced                                   : No
    
    Text #3
    ID                                       : 7
    Format                                   : UTF-8
    Codec ID                                 : S_TEXT/UTF8
    Codec ID/Info                            : UTF-8 Plain Text
    Title                                    : Englisch Full
    Language                                 : English
    Default                                  : No
    Forced                                   : No

    M.D. Geist II - Death Force
    Spoiler
    Code:
    Format                                   : Matroska
    Format version                           : Version 2
    File size                                : 513 MiB
    Duration                                 : 47mn 2s
    Overall bit rate mode                    : Variable
    Overall bit rate                         : 1 526 Kbps
    Movie name                               : M.D. Geist Deathforce
    Encoded date                             : UTC 2012-03-05 16:44:55
    Writing application                      : mkvmerge v5.0.0 ('Die Wahre Liebe') built on Sep 25 2011 20:33:49
    Writing library                          : libebml v1.2.2 + libmatroska v1.3.0
    
    Video
    ID                                       : 1
    Format                                   : AVC
    Format/Info                              : Advanced Video Codec
    Format profile                           : [email protected]
    Format settings, CABAC                   : Yes
    Format settings, ReFrames                : 2 frames
    Muxing mode                              : Header stripping
    Codec ID                                 : V_MPEG4/ISO/AVC
    Duration                                 : 47mn 2s
    Nominal bit rate                         : 1 200 Kbps
    Width                                    : 640 pixels
    Height                                   : 480 pixels
    Display aspect ratio                     : 4:3
    Frame rate                               : 23.976 fps
    Color space                              : YUV
    Chroma subsampling                       : 4:2:0
    Bit depth                                : 8 bits
    Scan type                                : Progressive
    Bits/(Pixel*Frame)                       : 0.163
    Title                                    : [DBNL][MeisterMutaito]
    Writing library                          : x264 core 54 rev 600
    Encoding settings                        : cabac=1 / ref=1 / deblock=1:3:2 / analyse=0x3:0x113 / me=hex / subme=5 / brdo=0 / mixed_ref=0 / me_range=16 / chroma_me=1 / trellis=1 / 8x8dct=1 / cqm=0 / deadzone=21,11 / chroma_qp_offset=0 / slices=1 / nr=0 / decimate=1 / mbaff=0 / bframes=2 / b_pyramid=0 / b_adapt=1 / b_bias=0 / direct=3 / wpredb=1 / bime=0 / keyint=250 / keyint_min=25 / scenecut=40 / rc=abr / bitrate=1200 / ratetol=1.0 / rceq='blurCplx^(1-qComp)' / qcomp=0.60 / qpmin=10 / qpmax=51 / qpstep=4 / ip_ratio=1.40 / pb_ratio=1.30
    Language                                 : German
    Default                                  : Yes
    Forced                                   : No
    
    Audio #1
    ID                                       : 2
    Format                                   : Vorbis
    Format settings, Floor                   : 1
    Codec ID                                 : A_VORBIS
    Duration                                 : 47mn 2s
    Bit rate mode                            : Variable
    Bit rate                                 : 112 Kbps
    Channel(s)                               : 2 channels
    Sampling rate                            : 48.0 KHz
    Compression mode                         : Lossy
    Stream size                              : 37.7 MiB (7%)
    Title                                    : Japanisch Audio
    Writing library                          : libVorbis 1.0 (UTC 2002-07-17)
    Language                                 : Japanese
    Default                                  : Yes
    Forced                                   : No
    
    Audio #2
    ID                                       : 3
    Format                                   : Vorbis
    Format settings, Floor                   : 1
    Codec ID                                 : A_VORBIS
    Duration                                 : 47mn 2s
    Bit rate mode                            : Variable
    Bit rate                                 : 112 Kbps
    Channel(s)                               : 2 channels
    Sampling rate                            : 48.0 KHz
    Compression mode                         : Lossy
    Stream size                              : 37.7 MiB (7%)
    Title                                    : Englisch Audio
    Writing library                          : libVorbis 1.0 (UTC 2002-07-17)
    Language                                 : English
    Default                                  : No
    Forced                                   : No
    
    Audio #3
    ID                                       : 4
    Format                                   : AAC
    Format/Info                              : Advanced Audio Codec
    Format profile                           : LC
    Codec ID                                 : A_AAC
    Duration                                 : 47mn 2s
    Channel(s)                               : 2 channels
    Channel positions                        : Front: L R
    Sampling rate                            : 48.0 KHz
    Compression mode                         : Lossy
    Title                                    : Deutsch Audio
    Language                                 : German
    Default                                  : No
    Forced                                   : No
    
    Text #1
    ID                                       : 5
    Format                                   : ASS
    Codec ID                                 : S_TEXT/ASS
    Codec ID/Info                            : Advanced Sub Station Alpha
    Compression mode                         : Lossless
    Title                                    : Deutsch Full
    Language                                 : German
    Default                                  : Yes
    Forced                                   : No
    
    Text #2
    ID                                       : 6
    Format                                   : ASS
    Codec ID                                 : S_TEXT/ASS
    Codec ID/Info                            : Advanced Sub Station Alpha
    Compression mode                         : Lossless
    Title                                    : Deutsch Forced
    Language                                 : German
    Default                                  : No
    Forced                                   : No
    
    Text #3
    ID                                       : 7
    Format                                   : UTF-8
    Codec ID                                 : S_TEXT/UTF8
    Codec ID/Info                            : UTF-8 Plain Text
    Title                                    : Englisch Full
    Language                                 : English
    Default                                  : No
    Forced                                   : No


    Password
    [email protected]

    Geschützter Bereich - Bedanke dich beim Poster, um den Bereich sehen zu können
    Hier erfährst Du wie Du Dich bedanken kannst oder werde jetzt Premium Mitglied ab einer Spende von 5€ und erhalte sofortigen Zugriff auf den Downloadbereich!

    Geändert von ohlong (12. January 2016 um 13:30 Uhr)

  2. 28 Benutzer sagen Danke:

    Akio (6. December 2015),Anathos (27. December 2014),Coji (14. June 2015),dave_christoph (19. April 2014),Dexter121 (15. April 2015),Dreieckhard (20. August 2015),egon1212 (2. September 2015),farmerjoe (28. June 2014),freakwatcher (23. September 2015),Grom (15. April 2016),haltdiefresse (11. October 2014),Hisamaki (22. July 2014),JoleenLovesMina (14. April 2014),kenshin057 (27. December 2014),lucky_mer (14. November 2015),midnighter (19. January 2015),naban (15. April 2014),NanaNo7 (27. August 2014),noizmaker (15. January 2015),pahso (3. July 2016),Starbrand (13. April 2014),sunnlo (29. September 2014),sword (8. September 2015),Tai1988 (2. August 2015),Tarlysin (25. August 2014),ThomasTNT_inactive (3. November 2014),tohotono1987 (16. September 2015),Wolfcore (24. September 2015)

  3. #2
    Erfahrener Otaku Avatar von ohlong
    Registriert seit
    Sep 2013
    Ort
    Im Herzen Deutschlands
    Beiträge
    151
    Punkte
    5.807
    Errungenschaften:
    TomodachisTagger Profi5000 ErfahrungspunkteHikikomori

    AW: M.D. Geist [2/2][JapGerEngDub][GerEngSub][DVDRip]

    Reup auf Share-Online & Uploaded

Stichworte

Lesezeichen

Berechtigungen

  • Neue Themen erstellen: Nein
  • Themen beantworten: Nein
  • Anhänge hochladen: Nein
  • Beiträge bearbeiten: Nein
  •  

1 2 3 4 5 6 7 8 9 10 11 12 13 14 15 16 17 18 19 20 21 22 23 24 25 26 27 28 29 30 31 32 33 34 35 36 37 38 39 40 41 42 43 44 45 46 47 48 49 50 51 52 53 54 55 56 57 58 59 60 61 62 63 64 65 66 67 68 69 70 71 72 73 74 75 76 77 78 79 80 81 82 83 84 85 86 87 88 89 90 91 92 93 94 95 96 97 98 99 100 101 102 103 104 105 106 107 108 109 110 111 112 113 114 115 116 117 118 119 120 121 122 123 124 125 126 127 128 129 130 131 132 133 134 135 136 137 138 139 140 141 142 143 144 145 146 147 148 149 150 151 152 153 154 155 156 157 158