Ergebnis 1 bis 1 von 1

Thema: Mahou Shoujo Madoka Magica The Movie: Part 3 [Ger-Jap-Eng-Dub][Ger-Eng-Fre-Spa-Rus-Sub][AC3/DTS-HD][720p/1080p][BluRay]-00Ryuji00

Dieser Thread wurde noch nicht bewertet. Bewerte ihn doch, wenn er dir gefällt!
  1. #1
    United we Stand Avatar von 00Ryuji00
    Registriert seit
    Oct 2012
    Beiträge
    3.896
    Punkte
    99.519
    Errungenschaften:
    TomodachisGang LeaderHikikomoriTagger Amateur50000 Erfahrungspunkte

    Mahou Shoujo Madoka Magica The Movie: Part 3 [Ger-Jap-Eng-Dub][Ger-Eng-Fre-Spa-Rus-Sub][AC3/DTS-HD][720p/1080p][BluRay]-00Ryuji00


    Gekijouban Mahou Shoujo Madoka Magica (Shinpen): Hangyaku no Monogatari
    Puella Magi Madoka Magica The Movie: Part 3 - Rebellion
    Madoka Magica: Der Film - Rebellion






    Kurzbeschreibung:
    Zitat Zitat von AniSearch.com
    Madoka war mal ein normales Mädchen mit einem glücklichen Leben. All das endete, als sie sich selbst opferte um andere "Magical Girls" vor dem grausamen Schicksal, das sie erwartete zu retten. Unfähig Madoka zu vergessen, hört Homura nicht auf alleine in der Welt, die Madoka zurückließ, zu kämpfen, um noch einmal ihr Lächeln zu sehen.


    Spieldauer: 116min
    Genre: Drama
    Nebengenres: Action, Drama, Magical Girl, Mystery, Psychodrama
    Jahr: 2013
    Sprache: Deutsch, Englisch, Japanisch
    Untertitel: Deutsch, Englisch, Französisch, Spanisch, Russisch
    Größe pro Folge: ~5.13 GiB ~9.54 GiB ~15.4 GiB
    Episodenanzahl: 1/1
    Format: MKV
    Auflösung: 720p (16:9), 1080p (16:9)
    Videocodec: x264 (AVC)
    Audiocodec: AC-3, DTS
    Releasegruppe: 00Ryuji00
    Hoster: Share-Online, Uploaded


    MediaInfo
    720p AC3
    Code:
    
    Format                                   : Matroska
    Format version                           : Version 4 / Version 2
    File size                                : 5.13 GiB
    Duration                                 : 1h 56mn
    Overall bit rate                         : 6 302 Kbps
    Movie name                               : Mehr Anime in Top-Qualität findet ihr auf www.animes.so
    Encoded date                             : UTC 2016-02-08 14:58:09
    Writing application                      : mkvmerge v7.8.0 ('River Man') 64bit built on Mar 27 2015 16:31:37
    Writing library                          : libebml v1.3.1 + libmatroska v1.4.2
    Attachements                             : a song for jennifer bold.ttf / Derivia-Bold.ttf / FOT-HummingStdEn-B.OTF / IWAMINPRO-BD-EN.otf / IwaNGoPro-Eb-CP.ttf / IwaNGoPro-Md-AW.ttf / KozGoStd-Medium-Photokano.ttf / KozMinPr6N-Heavy-CP.ttf / Mixage_Bk_BT_Bold.ttf / Mixage_Bk_BT_Bold_Italic.TTF / NovelSansRoundedPro-SemiBoldObl.otf / PFSquareSansPro-Medium.ttf / RUBTTS_.TTF / RuzickaTypeK.ttf / ArnoPro8.otf / BIP.ttf / BrushType.TTF / CAMBRIA0.TTC / cambriab.ttf / constanz.ttf / Segoepr_0.ttf / tahomabd.ttf / timesbd.ttf / Vesna_0.ttf / BOD_CR_0_0.ttf / Eraslght_0_0.ttf / framd_0_0.ttf / BRITANIC_0_0.ttf / playtime_0_0_0.ttf / BeautifulEveryTime.ttf / Clearface_SSi_Bold.ttf / Delicious-Bold.otf / itc_flora--lte51160.ttf / MAIAN.TTF / NervouzReich Rank.ttf / OptimaLTStd-Medium.otf / Painfresco-Regular.ttf / Roboto-Black.ttf / TriplexSans-XBoldOsF.otf / AMIENNEB.TTF / AndBasR.ttf / Andika Basic_0.ttf / Aquait.ttf / FLORA.TTF / HIGHMIM.TTF / OCRAEXT.TTF / RuzickaTypeK_0.ttf / Sketchy.ttf / Vesta-Bold.otf / Vesta-Bold_1.otf
    DURATION                                 : 01:56:37.365000000
    NUMBER_OF_FRAMES                         : 167769
    NUMBER_OF_BYTES                          : 3661316083
    _STATISTICS_WRITING_APP                  : mkvmerge v7.8.0 ('River Man') 64bit built on Mar 27 2015 16:31:37
    _STATISTICS_WRITING_DATE_UTC             : 2016-02-08 14:58:09
    _STATISTICS_TAGS                         : BPS DURATION NUMBER_OF_FRAMES NUMBER_OF_BYTES
    
    Video
    ID                                       : 1
    Format                                   : AVC
    Format/Info                              : Advanced Video Codec
    Format profile                           : [email protected]
    Format settings, CABAC                   : Yes
    Format settings, ReFrames                : 12 frames
    Codec ID                                 : V_MPEG4/ISO/AVC
    Duration                                 : 1h 56mn
    Bit rate                                 : 4 256 Kbps
    Width                                    : 1 280 pixels
    Height                                   : 720 pixels
    Display aspect ratio                     : 16:9
    Frame rate mode                          : Constant
    Frame rate                               : 23.976 fps
    Color space                              : YUV
    Chroma subsampling                       : 4:2:0
    Bit depth                                : 8 bits
    Scan type                                : Progressive
    Bits/(Pixel*Frame)                       : 0.193
    Stream size                              : 3.47 GiB (68%)
    Title                                    : 720p 8-Bit [AVC/H.264][00Ryuji00]
    Writing library                          : x264 core 146 r2538 121396c
    Encoding settings                        : cabac=1 / ref=12 / deblock=1:-1:-1 / analyse=0x3:0x133 / me=umh / subme=10 / psy=1 / psy_rd=1.00:0.15 / mixed_ref=1 / me_range=24 / chroma_me=1 / trellis=2 / 8x8dct=1 / cqm=0 / deadzone=21,11 / fast_pskip=1 / chroma_qp_offset=-3 / threads=12 / lookahead_threads=2 / sliced_threads=0 / nr=0 / decimate=1 / interlaced=0 / bluray_compat=0 / constrained_intra=0 / bframes=8 / b_pyramid=2 / b_adapt=2 / b_bias=0 / direct=3 / weightb=1 / open_gop=0 / weightp=2 / keyint=250 / keyint_min=23 / scenecut=40 / intra_refresh=0 / rc_lookahead=60 / rc=crf / mbtree=1 / crf=16.0 / qcomp=0.60 / qpmin=0 / qpmax=69 / qpstep=4 / ip_ratio=1.40 / aq=1:1.00
    Default                                  : Yes
    Forced                                   : No
    
    Audio #1
    ID                                       : 2
    Format                                   : AC-3
    Format/Info                              : Audio Coding 3
    Mode extension                           : CM (complete main)
    Format settings, Endianness              : Big
    Codec ID                                 : A_AC3
    Duration                                 : 1h 56mn
    Bit rate mode                            : Constant
    Bit rate                                 : 640 Kbps
    Channel(s)                               : 6 channels
    Channel positions                        : Front: L C R, Side: L R, LFE
    Sampling rate                            : 48.0 KHz
    Compression mode                         : Lossy
    Stream size                              : 534 MiB (10%)
    Title                                    : AC3 5.1
    Language                                 : German
    Default                                  : Yes
    Forced                                   : No
    
    Audio #2
    ID                                       : 3
    Format                                   : AC-3
    Format/Info                              : Audio Coding 3
    Mode extension                           : CM (complete main)
    Format settings, Endianness              : Big
    Codec ID                                 : A_AC3
    Duration                                 : 1h 56mn
    Bit rate mode                            : Constant
    Bit rate                                 : 640 Kbps
    Channel(s)                               : 6 channels
    Channel positions                        : Front: L C R, Side: L R, LFE
    Sampling rate                            : 48.0 KHz
    Compression mode                         : Lossy
    Stream size                              : 534 MiB (10%)
    Title                                    : AC3 5.1
    Language                                 : Japanese
    Default                                  : No
    Forced                                   : No
    
    Audio #3
    ID                                       : 4
    Format                                   : AC-3
    Format/Info                              : Audio Coding 3
    Mode extension                           : CM (complete main)
    Format settings, Endianness              : Big
    Codec ID                                 : A_AC3
    Duration                                 : 1h 56mn
    Bit rate mode                            : Constant
    Bit rate                                 : 640 Kbps
    Channel(s)                               : 6 channels
    Channel positions                        : Front: L C R, Side: L R, LFE
    Sampling rate                            : 48.0 KHz
    Compression mode                         : Lossy
    Delay relative to video                  : 1s 30ms
    Stream size                              : 534 MiB (10%)
    Title                                    : AC3 5.1
    Language                                 : English
    Default                                  : No
    Forced                                   : No
    
    Text #1
    ID                                       : 5
    Format                                   : ASS
    Codec ID                                 : S_TEXT/ASS
    Codec ID/Info                            : Advanced Sub Station Alpha
    Compression mode                         : Lossless
    Title                                    : Fullsub [ASS][No]
    Language                                 : German
    Default                                  : No
    Forced                                   : No
    
    Text #2
    ID                                       : 6
    Format                                   : ASS
    Codec ID                                 : S_TEXT/ASS
    Codec ID/Info                            : Advanced Sub Station Alpha
    Compression mode                         : Lossless
    Title                                    : Fullsub [ASS][No](Meguca)
    Language                                 : German
    Default                                  : No
    Forced                                   : No
    
    Text #3
    ID                                       : 7
    Format                                   : ASS
    Codec ID                                 : S_TEXT/ASS
    Codec ID/Info                            : Advanced Sub Station Alpha
    Compression mode                         : Lossless
    Title                                    : Forced Sub [ASS][Baal]
    Language                                 : English
    Default                                  : No
    Forced                                   : No
    
    Text #4
    ID                                       : 8
    Format                                   : ASS
    Codec ID                                 : S_TEXT/ASS
    Codec ID/Info                            : Advanced Sub Station Alpha
    Compression mode                         : Lossless
    Title                                    : Fullsub [ASS][Meguca]
    Language                                 : English
    Default                                  : No
    Forced                                   : No
    
    Text #5
    ID                                       : 9
    Format                                   : ASS
    Codec ID                                 : S_TEXT/ASS
    Codec ID/Info                            : Advanced Sub Station Alpha
    Compression mode                         : Lossless
    Title                                    : Fullsub [ASS][Coalgirls]
    Language                                 : English
    Default                                  : No
    Forced                                   : No
    
    Text #6
    ID                                       : 10
    Format                                   : ASS
    Codec ID                                 : S_TEXT/ASS
    Codec ID/Info                            : Advanced Sub Station Alpha
    Compression mode                         : Lossless
    Title                                    : Fullsub [ASS][Karoshi]
    Language                                 : English
    Default                                  : No
    Forced                                   : No
    
    Text #7
    ID                                       : 11
    Format                                   : ASS
    Codec ID                                 : S_TEXT/ASS
    Codec ID/Info                            : Advanced Sub Station Alpha
    Compression mode                         : Lossless
    Title                                    : Fullsub [ASS][Coalgirls]
    Language                                 : French
    Default                                  : No
    Forced                                   : No
    
    Text #8
    ID                                       : 12
    Format                                   : ASS
    Codec ID                                 : S_TEXT/ASS
    Codec ID/Info                            : Advanced Sub Station Alpha
    Compression mode                         : Lossless
    Title                                    : Fullsub [ASS][Coalgirls]
    Language                                 : Spanish
    Default                                  : No
    Forced                                   : No
    
    Text #9
    ID                                       : 13
    Format                                   : ASS
    Codec ID                                 : S_TEXT/ASS
    Codec ID/Info                            : Advanced Sub Station Alpha
    Compression mode                         : Lossless
    Title                                    : Fullsub [ASS][ap&LD]
    Language                                 : Russian
    Default                                  : No
    Forced                                   : No
    
    Text #10
    ID                                       : 14
    Format                                   : PGS
    Muxing mode                              : zlib
    Codec ID                                 : S_HDMV/PGS
    Codec ID/Info                            : Picture based subtitle format used on BDs/HD-DVDs
    Title                                    : Forced Sub [PGS][BD]
    Language                                 : German
    Default                                  : Yes
    Forced                                   : No
    
    Text #11
    ID                                       : 15
    Format                                   : PGS
    Muxing mode                              : zlib
    Codec ID                                 : S_HDMV/PGS
    Codec ID/Info                            : Picture based subtitle format used on BDs/HD-DVDs
    Title                                    : Fullsub [PGS][BD]
    Language                                 : German
    Default                                  : No
    Forced                                   : No
    
    Text #12
    ID                                       : 16
    Format                                   : PGS
    Muxing mode                              : zlib
    Codec ID                                 : S_HDMV/PGS
    Codec ID/Info                            : Picture based subtitle format used on BDs/HD-DVDs
    Title                                    : Fullsub [PGS][BD]
    Language                                 : English
    Default                                  : No
    Forced                                   : No
    
    Text #13
    ID                                       : 17
    Format                                   : PGS
    Muxing mode                              : zlib
    Codec ID                                 : S_HDMV/PGS
    Codec ID/Info                            : Picture based subtitle format used on BDs/HD-DVDs
    Title                                    : Fullsub [PGS][BD]
    Language                                 : Japanese
    Default                                  : No
    Forced                                   : No
    
    Menu #1
    00:00:00.000                             : en:Chapter 01
    00:04:41.198                             : en:Chapter 02
    00:07:33.662                             : en:Chapter 03
    00:09:08.381                             : en:Chapter 04
    00:13:27.765                             : en:Chapter 05
    00:16:49.008                             : en:Chapter 06
    00:21:19.278                             : en:Chapter 07
    00:27:48.166                             : en:Chapter 08
    00:30:30.412                             : en:Chapter 09
    00:33:22.000                             : en:Chapter 10
    00:36:26.309                             : en:Chapter 11
    00:39:54.392                             : en:Chapter 12
    00:41:36.160                             : en:Chapter 13
    00:46:02.551                             : en:Chapter 14
    00:51:25.958                             : en:Chapter 15
    00:54:44.698                             : en:Chapter 16
    00:57:23.523                             : en:Chapter 17
    01:00:20.116                             : en:Chapter 18
    01:02:39.089                             : en:Chapter 19
    01:07:34.217                             : en:Chapter 20
    01:12:11.827                             : en:Chapter 21
    01:18:24.533                             : en:Chapter 22
    01:23:49.650                             : en:Chapter 23
    01:25:33.128                             : en:Chapter 24
    01:31:26.940                             : en:Chapter 25
    01:33:32.690                             : en:Chapter 26
    01:40:49.043                             : en:Chapter 27
    01:44:58.209                             : en:Chapter 28
    01:50:04.556                             : en:Chapter 29
    01:55:12.197                             : en:Chapter 30
    
    Menu #2
    00:00:00.000                             : en:00:00:00.000
    00:04:42.199                             : en:00:04:42.199
    00:07:34.663                             : en:00:07:34.663
    00:09:09.382                             : en:00:09:09.382
    00:13:28.766                             : en:00:13:28.766
    00:16:50.009                             : en:00:16:50.009
    00:21:20.279                             : en:00:21:20.279
    00:27:49.167                             : en:00:27:49.167
    00:30:31.413                             : en:00:30:31.413
    00:33:23.001                             : en:00:33:23.001
    00:36:27.310                             : en:00:36:27.310
    00:39:55.393                             : en:00:39:55.393
    00:41:37.161                             : en:00:41:37.161
    00:46:03.552                             : en:00:46:03.552
    00:51:26.959                             : en:00:51:26.959
    00:54:45.699                             : en:00:54:45.699
    00:57:24.524                             : en:00:57:24.524
    01:00:21.117                             : en:01:00:21.117
    01:02:40.090                             : en:01:02:40.090
    01:07:35.218                             : en:01:07:35.218
    01:12:12.828                             : en:01:12:12.828
    01:18:25.534                             : en:01:18:25.534
    01:23:50.651                             : en:01:23:50.651
    01:25:34.129                             : en:01:25:34.129
    01:31:27.941                             : en:01:31:27.941
    01:33:33.691                             : en:01:33:33.691
    01:40:50.044                             : en:01:40:50.044
    01:44:59.210                             : en:01:44:59.210
    01:50:05.557                             : en:01:50:05.557
    01:55:13.198                             : en:01:55:13.198
    
    


    1080p AC3
    Code:
    
    Format                                   : Matroska
    Format version                           : Version 4 / Version 2
    File size                                : 9.54 GiB
    Duration                                 : 1h 56mn
    Overall bit rate                         : 11.7 Mbps
    Movie name                               : Mehr Anime in Top-Qualität findet ihr auf www.animes.so
    Encoded date                             : UTC 2016-02-08 14:44:46
    Writing application                      : mkvmerge v7.8.0 ('River Man') 64bit built on Mar 27 2015 16:31:37
    Writing library                          : libebml v1.3.1 + libmatroska v1.4.2
    Attachements                             : a song for jennifer bold.ttf / Derivia-Bold.ttf / FOT-HummingStdEn-B.OTF / IWAMINPRO-BD-EN.otf / IwaNGoPro-Eb-CP.ttf / IwaNGoPro-Md-AW.ttf / KozGoStd-Medium-Photokano.ttf / KozMinPr6N-Heavy-CP.ttf / Mixage_Bk_BT_Bold.ttf / Mixage_Bk_BT_Bold_Italic.TTF / NovelSansRoundedPro-SemiBoldObl.otf / PFSquareSansPro-Medium.ttf / RUBTTS_.TTF / RuzickaTypeK.ttf / ArnoPro8.otf / BIP.ttf / BrushType.TTF / CAMBRIA0.TTC / cambriab.ttf / constanz.ttf / Segoepr_0.ttf / tahomabd.ttf / timesbd.ttf / Vesna_0.ttf / BOD_CR_0_0.ttf / Eraslght_0_0.ttf / framd_0_0.ttf / BRITANIC_0_0.ttf / playtime_0_0_0.ttf / BeautifulEveryTime.ttf / Clearface_SSi_Bold.ttf / Delicious-Bold.otf / itc_flora--lte51160.ttf / MAIAN.TTF / NervouzReich Rank.ttf / OptimaLTStd-Medium.otf / Painfresco-Regular.ttf / Roboto-Black.ttf / TriplexSans-XBoldOsF.otf / AMIENNEB.TTF / AndBasR.ttf / Andika Basic_0.ttf / Aquait.ttf / FLORA.TTF / HIGHMIM.TTF / OCRAEXT.TTF / RuzickaTypeK_0.ttf / Sketchy.ttf / Vesta-Bold.otf / Vesta-Bold_1.otf
    DURATION                                 : 01:56:37.408000000
    NUMBER_OF_FRAMES                         : 218669
    NUMBER_OF_BYTES                          : 559792640
    _STATISTICS_WRITING_APP                  : mkvmerge v7.8.0 ('River Man') 64bit built on Mar 27 2015 16:31:37
    _STATISTICS_WRITING_DATE_UTC             : 2016-02-08 14:44:46
    _STATISTICS_TAGS                         : BPS DURATION NUMBER_OF_FRAMES NUMBER_OF_BYTES
    
    Video
    ID                                       : 1
    Format                                   : AVC
    Format/Info                              : Advanced Video Codec
    Format profile                           : [email protected]
    Format settings, CABAC                   : Yes
    Format settings, ReFrames                : 4 frames
    Codec ID                                 : V_MPEG4/ISO/AVC
    Duration                                 : 1h 56mn
    Bit rate                                 : 9 562 Kbps
    Width                                    : 1 920 pixels
    Height                                   : 1 080 pixels
    Display aspect ratio                     : 16:9
    Frame rate mode                          : Constant
    Frame rate                               : 23.976 fps
    Color space                              : YUV
    Chroma subsampling                       : 4:2:0
    Bit depth                                : 8 bits
    Scan type                                : Progressive
    Bits/(Pixel*Frame)                       : 0.192
    Stream size                              : 7.79 GiB (82%)
    Title                                    : 1080p 8-Bit [AVC/H.264][00Ryuji00]
    Writing library                          : x264 core 146 r2538 121396c
    Encoding settings                        : cabac=1 / ref=4 / deblock=1:-1:-1 / analyse=0x3:0x133 / me=umh / subme=10 / psy=1 / psy_rd=1.00:0.15 / mixed_ref=1 / me_range=24 / chroma_me=1 / trellis=2 / 8x8dct=1 / cqm=0 / deadzone=21,11 / fast_pskip=1 / chroma_qp_offset=-3 / threads=12 / lookahead_threads=2 / sliced_threads=0 / nr=0 / decimate=1 / interlaced=0 / bluray_compat=0 / constrained_intra=0 / bframes=8 / b_pyramid=2 / b_adapt=2 / b_bias=0 / direct=3 / weightb=1 / open_gop=0 / weightp=2 / keyint=250 / keyint_min=23 / scenecut=40 / intra_refresh=0 / rc_lookahead=60 / rc=crf / mbtree=1 / crf=16.0 / qcomp=0.60 / qpmin=0 / qpmax=69 / qpstep=4 / ip_ratio=1.40 / aq=1:1.00
    Default                                  : Yes
    Forced                                   : No
    
    Audio #1
    ID                                       : 2
    Format                                   : AC-3
    Format/Info                              : Audio Coding 3
    Mode extension                           : CM (complete main)
    Format settings, Endianness              : Big
    Codec ID                                 : A_AC3
    Duration                                 : 1h 56mn
    Bit rate mode                            : Constant
    Bit rate                                 : 640 Kbps
    Channel(s)                               : 6 channels
    Channel positions                        : Front: L C R, Side: L R, LFE
    Sampling rate                            : 48.0 KHz
    Compression mode                         : Lossy
    Stream size                              : 534 MiB (5%)
    Title                                    : AC3 5.1
    Language                                 : German
    Default                                  : Yes
    Forced                                   : No
    
    Audio #2
    ID                                       : 3
    Format                                   : AC-3
    Format/Info                              : Audio Coding 3
    Mode extension                           : CM (complete main)
    Format settings, Endianness              : Big
    Codec ID                                 : A_AC3
    Duration                                 : 1h 56mn
    Bit rate mode                            : Constant
    Bit rate                                 : 640 Kbps
    Channel(s)                               : 6 channels
    Channel positions                        : Front: L C R, Side: L R, LFE
    Sampling rate                            : 48.0 KHz
    Compression mode                         : Lossy
    Stream size                              : 534 MiB (5%)
    Title                                    : AC3 5.1
    Language                                 : Japanese
    Default                                  : No
    Forced                                   : No
    
    Audio #3
    ID                                       : 4
    Format                                   : AC-3
    Format/Info                              : Audio Coding 3
    Mode extension                           : CM (complete main)
    Format settings, Endianness              : Big
    Codec ID                                 : A_AC3
    Duration                                 : 1h 56mn
    Bit rate mode                            : Constant
    Bit rate                                 : 640 Kbps
    Channel(s)                               : 6 channels
    Channel positions                        : Front: L C R, Side: L R, LFE
    Sampling rate                            : 48.0 KHz
    Compression mode                         : Lossy
    Delay relative to video                  : 1s 30ms
    Stream size                              : 534 MiB (5%)
    Title                                    : AC3 5.1
    Language                                 : English
    Default                                  : No
    Forced                                   : No
    
    Text #1
    ID                                       : 5
    Format                                   : ASS
    Codec ID                                 : S_TEXT/ASS
    Codec ID/Info                            : Advanced Sub Station Alpha
    Compression mode                         : Lossless
    Title                                    : Fullsub [ASS][No]
    Language                                 : German
    Default                                  : No
    Forced                                   : No
    
    Text #2
    ID                                       : 6
    Format                                   : ASS
    Codec ID                                 : S_TEXT/ASS
    Codec ID/Info                            : Advanced Sub Station Alpha
    Compression mode                         : Lossless
    Title                                    : Fullsub [ASS][No](Meguca)
    Language                                 : German
    Default                                  : No
    Forced                                   : No
    
    Text #3
    ID                                       : 7
    Format                                   : ASS
    Codec ID                                 : S_TEXT/ASS
    Codec ID/Info                            : Advanced Sub Station Alpha
    Compression mode                         : Lossless
    Title                                    : Forced Sub [ASS][Baal]
    Language                                 : English
    Default                                  : No
    Forced                                   : No
    
    Text #4
    ID                                       : 8
    Format                                   : ASS
    Codec ID                                 : S_TEXT/ASS
    Codec ID/Info                            : Advanced Sub Station Alpha
    Compression mode                         : Lossless
    Title                                    : Fullsub [ASS][Meguca]
    Language                                 : English
    Default                                  : No
    Forced                                   : No
    
    Text #5
    ID                                       : 9
    Format                                   : ASS
    Codec ID                                 : S_TEXT/ASS
    Codec ID/Info                            : Advanced Sub Station Alpha
    Compression mode                         : Lossless
    Title                                    : Fullsub [ASS][Coalgirls]
    Language                                 : English
    Default                                  : No
    Forced                                   : No
    
    Text #6
    ID                                       : 10
    Format                                   : ASS
    Codec ID                                 : S_TEXT/ASS
    Codec ID/Info                            : Advanced Sub Station Alpha
    Compression mode                         : Lossless
    Title                                    : Fullsub [ASS][Karoshi]
    Language                                 : English
    Default                                  : No
    Forced                                   : No
    
    Text #7
    ID                                       : 11
    Format                                   : ASS
    Codec ID                                 : S_TEXT/ASS
    Codec ID/Info                            : Advanced Sub Station Alpha
    Compression mode                         : Lossless
    Title                                    : Fullsub [ASS][Coalgirls]
    Language                                 : French
    Default                                  : No
    Forced                                   : No
    
    Text #8
    ID                                       : 12
    Format                                   : ASS
    Codec ID                                 : S_TEXT/ASS
    Codec ID/Info                            : Advanced Sub Station Alpha
    Compression mode                         : Lossless
    Title                                    : Fullsub [ASS][Coalgirls]
    Language                                 : Spanish
    Default                                  : No
    Forced                                   : No
    
    Text #9
    ID                                       : 13
    Format                                   : ASS
    Codec ID                                 : S_TEXT/ASS
    Codec ID/Info                            : Advanced Sub Station Alpha
    Compression mode                         : Lossless
    Title                                    : Fullsub [ASS][ap&LD]
    Language                                 : Russian
    Default                                  : No
    Forced                                   : No
    
    Text #10
    ID                                       : 14
    Format                                   : PGS
    Muxing mode                              : zlib
    Codec ID                                 : S_HDMV/PGS
    Codec ID/Info                            : Picture based subtitle format used on BDs/HD-DVDs
    Title                                    : Forced Sub [PGS][BD]
    Language                                 : German
    Default                                  : Yes
    Forced                                   : No
    
    Text #11
    ID                                       : 15
    Format                                   : PGS
    Muxing mode                              : zlib
    Codec ID                                 : S_HDMV/PGS
    Codec ID/Info                            : Picture based subtitle format used on BDs/HD-DVDs
    Title                                    : Fullsub [PGS][BD]
    Language                                 : German
    Default                                  : No
    Forced                                   : No
    
    Text #12
    ID                                       : 16
    Format                                   : PGS
    Muxing mode                              : zlib
    Codec ID                                 : S_HDMV/PGS
    Codec ID/Info                            : Picture based subtitle format used on BDs/HD-DVDs
    Title                                    : Fullsub [PGS][BD]
    Language                                 : English
    Default                                  : No
    Forced                                   : No
    
    Text #13
    ID                                       : 17
    Format                                   : PGS
    Muxing mode                              : zlib
    Codec ID                                 : S_HDMV/PGS
    Codec ID/Info                            : Picture based subtitle format used on BDs/HD-DVDs
    Title                                    : Fullsub [PGS][BD]
    Language                                 : Japanese
    Default                                  : No
    Forced                                   : No
    
    Menu #1
    00:00:00.000                             : en:Chapter 01
    00:04:41.198                             : en:Chapter 02
    00:07:33.662                             : en:Chapter 03
    00:09:08.381                             : en:Chapter 04
    00:13:27.765                             : en:Chapter 05
    00:16:49.008                             : en:Chapter 06
    00:21:19.278                             : en:Chapter 07
    00:27:48.166                             : en:Chapter 08
    00:30:30.412                             : en:Chapter 09
    00:33:22.000                             : en:Chapter 10
    00:36:26.309                             : en:Chapter 11
    00:39:54.392                             : en:Chapter 12
    00:41:36.160                             : en:Chapter 13
    00:46:02.551                             : en:Chapter 14
    00:51:25.958                             : en:Chapter 15
    00:54:44.698                             : en:Chapter 16
    00:57:23.523                             : en:Chapter 17
    01:00:20.116                             : en:Chapter 18
    01:02:39.089                             : en:Chapter 19
    01:07:34.217                             : en:Chapter 20
    01:12:11.827                             : en:Chapter 21
    01:18:24.533                             : en:Chapter 22
    01:23:49.650                             : en:Chapter 23
    01:25:33.128                             : en:Chapter 24
    01:31:26.940                             : en:Chapter 25
    01:33:32.690                             : en:Chapter 26
    01:40:49.043                             : en:Chapter 27
    01:44:58.209                             : en:Chapter 28
    01:50:04.556                             : en:Chapter 29
    01:55:12.197                             : en:Chapter 30
    
    Menu #2
    00:00:00.000                             : en:00:00:00.000
    00:04:42.199                             : en:00:04:42.199
    00:07:34.663                             : en:00:07:34.663
    00:09:09.382                             : en:00:09:09.382
    00:13:28.766                             : en:00:13:28.766
    00:16:50.009                             : en:00:16:50.009
    00:21:20.279                             : en:00:21:20.279
    00:27:49.167                             : en:00:27:49.167
    00:30:31.413                             : en:00:30:31.413
    00:33:23.001                             : en:00:33:23.001
    00:36:27.310                             : en:00:36:27.310
    00:39:55.393                             : en:00:39:55.393
    00:41:37.161                             : en:00:41:37.161
    00:46:03.552                             : en:00:46:03.552
    00:51:26.959                             : en:00:51:26.959
    00:54:45.699                             : en:00:54:45.699
    00:57:24.524                             : en:00:57:24.524
    01:00:21.117                             : en:01:00:21.117
    01:02:40.090                             : en:01:02:40.090
    01:07:35.218                             : en:01:07:35.218
    01:12:12.828                             : en:01:12:12.828
    01:18:25.534                             : en:01:18:25.534
    01:23:50.651                             : en:01:23:50.651
    01:25:34.129                             : en:01:25:34.129
    01:31:27.941                             : en:01:31:27.941
    01:33:33.691                             : en:01:33:33.691
    01:40:50.044                             : en:01:40:50.044
    01:44:59.210                             : en:01:44:59.210
    01:50:05.557                             : en:01:50:05.557
    01:55:13.198                             : en:01:55:13.198
    
    


    1080p DTS-HD
    Code:
    
    Format                                   : Matroska
    Format version                           : Version 4 / Version 2
    File size                                : 15.4 GiB
    Duration                                 : 1h 56mn
    Overall bit rate mode                    : Variable
    Overall bit rate                         : 18.9 Mbps
    Movie name                               : Mehr Anime in Top-Qualität findet ihr auf www.animes.so
    Encoded date                             : UTC 2016-02-08 14:30:45
    Writing application                      : mkvmerge v7.8.0 ('River Man') 64bit built on Mar 27 2015 16:31:37
    Writing library                          : libebml v1.3.1 + libmatroska v1.4.2
    Attachements                             : a song for jennifer bold.ttf / Derivia-Bold.ttf / FOT-HummingStdEn-B.OTF / IWAMINPRO-BD-EN.otf / IwaNGoPro-Eb-CP.ttf / IwaNGoPro-Md-AW.ttf / KozGoStd-Medium-Photokano.ttf / KozMinPr6N-Heavy-CP.ttf / Mixage_Bk_BT_Bold.ttf / Mixage_Bk_BT_Bold_Italic.TTF / NovelSansRoundedPro-SemiBoldObl.otf / PFSquareSansPro-Medium.ttf / RUBTTS_.TTF / RuzickaTypeK.ttf / ArnoPro8.otf / BIP.ttf / BrushType.TTF / CAMBRIA0.TTC / cambriab.ttf / constanz.ttf / Segoepr_0.ttf / tahomabd.ttf / timesbd.ttf / Vesna_0.ttf / BOD_CR_0_0.ttf / Eraslght_0_0.ttf / framd_0_0.ttf / BRITANIC_0_0.ttf / playtime_0_0_0.ttf / BeautifulEveryTime.ttf / Clearface_SSi_Bold.ttf / Delicious-Bold.otf / itc_flora--lte51160.ttf / MAIAN.TTF / NervouzReich Rank.ttf / OptimaLTStd-Medium.otf / Painfresco-Regular.ttf / Roboto-Black.ttf / TriplexSans-XBoldOsF.otf / AMIENNEB.TTF / AndBasR.ttf / Andika Basic_0.ttf / Aquait.ttf / FLORA.TTF / HIGHMIM.TTF / OCRAEXT.TTF / RuzickaTypeK_0.ttf / Sketchy.ttf / Vesta-Bold.otf / Vesta-Bold_1.otf
    DURATION                                 : 01:55:36.513000000
    NUMBER_OF_FRAMES                         : 7792
    NUMBER_OF_BYTES                          : 75335327
    _STATISTICS_WRITING_APP                  : mkvmerge v7.8.0 ('River Man') 64bit built on Mar 27 2015 16:31:37
    _STATISTICS_WRITING_DATE_UTC             : 2016-02-08 14:30:45
    _STATISTICS_TAGS                         : BPS DURATION NUMBER_OF_FRAMES NUMBER_OF_BYTES
    
    Video
    ID                                       : 1
    Format                                   : AVC
    Format/Info                              : Advanced Video Codec
    Format profile                           : [email protected]
    Format settings, CABAC                   : Yes
    Format settings, ReFrames                : 4 frames
    Codec ID                                 : V_MPEG4/ISO/AVC
    Duration                                 : 1h 56mn
    Width                                    : 1 920 pixels
    Height                                   : 1 080 pixels
    Display aspect ratio                     : 16:9
    Frame rate mode                          : Constant
    Frame rate                               : 23.976 fps
    Color space                              : YUV
    Chroma subsampling                       : 4:2:0
    Bit depth                                : 8 bits
    Scan type                                : Progressive
    Title                                    : 1080p 8-Bit [AVC/H.264][00Ryuji00]
    Writing library                          : x264 core 146 r2538 121396c
    Encoding settings                        : cabac=1 / ref=4 / deblock=1:-1:-1 / analyse=0x3:0x133 / me=umh / subme=10 / psy=1 / psy_rd=1.00:0.15 / mixed_ref=1 / me_range=24 / chroma_me=1 / trellis=2 / 8x8dct=1 / cqm=0 / deadzone=21,11 / fast_pskip=1 / chroma_qp_offset=-3 / threads=12 / lookahead_threads=2 / sliced_threads=0 / nr=0 / decimate=1 / interlaced=0 / bluray_compat=0 / constrained_intra=0 / bframes=8 / b_pyramid=2 / b_adapt=2 / b_bias=0 / direct=3 / weightb=1 / open_gop=0 / weightp=2 / keyint=250 / keyint_min=23 / scenecut=40 / intra_refresh=0 / rc_lookahead=60 / rc=crf / mbtree=1 / crf=16.0 / qcomp=0.60 / qpmin=0 / qpmax=69 / qpstep=4 / ip_ratio=1.40 / aq=1:1.00
    Default                                  : Yes
    Forced                                   : No
    
    Audio #1
    ID                                       : 2
    Format                                   : DTS
    Format/Info                              : Digital Theater Systems
    Format profile                           : MA / Core
    Mode                                     : 16
    Format settings, Endianness              : Big
    Codec ID                                 : A_DTS
    Duration                                 : 1h 56mn
    Bit rate mode                            : Variable
    Bit rate                                 : Unknown / 1 509 Kbps
    Channel(s)                               : 6 channels
    Channel positions                        : Front: L C R, Side: L R, LFE
    Sampling rate                            : 48.0 KHz
    Bit depth                                : 24 bits
    Compression mode                         : Lossless / Lossy
    Title                                    : DTS-HD MA 5.1
    Language                                 : German
    Default                                  : Yes
    Forced                                   : No
    
    Audio #2
    ID                                       : 3
    Format                                   : DTS
    Format/Info                              : Digital Theater Systems
    Format profile                           : MA / Core
    Mode                                     : 16
    Format settings, Endianness              : Big
    Codec ID                                 : A_DTS
    Duration                                 : 1h 56mn
    Bit rate mode                            : Variable
    Bit rate                                 : Unknown / 1 509 Kbps
    Channel(s)                               : 6 channels
    Channel positions                        : Front: L C R, Side: L R, LFE
    Sampling rate                            : 48.0 KHz
    Bit depth                                : 24 bits
    Compression mode                         : Lossless / Lossy
    Title                                    : DTS-HD MA 5.1
    Language                                 : Japanese
    Default                                  : No
    Forced                                   : No
    
    Audio #3
    ID                                       : 4
    Format                                   : AC-3
    Format/Info                              : Audio Coding 3
    Mode extension                           : CM (complete main)
    Format settings, Endianness              : Big
    Codec ID                                 : A_AC3
    Duration                                 : 1h 56mn
    Bit rate mode                            : Constant
    Bit rate                                 : 640 Kbps
    Channel(s)                               : 6 channels
    Channel positions                        : Front: L C R, Side: L R, LFE
    Sampling rate                            : 48.0 KHz
    Compression mode                         : Lossy
    Delay relative to video                  : 1s 30ms
    Stream size                              : 534 MiB (3%)
    Title                                    : AC3 5.1
    Language                                 : English
    Default                                  : No
    Forced                                   : No
    
    Text #1
    ID                                       : 5
    Format                                   : ASS
    Codec ID                                 : S_TEXT/ASS
    Codec ID/Info                            : Advanced Sub Station Alpha
    Compression mode                         : Lossless
    Title                                    : Fullsub [ASS][No]
    Language                                 : German
    Default                                  : No
    Forced                                   : No
    
    Text #2
    ID                                       : 6
    Format                                   : ASS
    Codec ID                                 : S_TEXT/ASS
    Codec ID/Info                            : Advanced Sub Station Alpha
    Compression mode                         : Lossless
    Title                                    : Fullsub [ASS][No](Meguca)
    Language                                 : German
    Default                                  : No
    Forced                                   : No
    
    Text #3
    ID                                       : 7
    Format                                   : ASS
    Codec ID                                 : S_TEXT/ASS
    Codec ID/Info                            : Advanced Sub Station Alpha
    Compression mode                         : Lossless
    Title                                    : Forced Sub [ASS][Baal]
    Language                                 : English
    Default                                  : No
    Forced                                   : No
    
    Text #4
    ID                                       : 8
    Format                                   : ASS
    Codec ID                                 : S_TEXT/ASS
    Codec ID/Info                            : Advanced Sub Station Alpha
    Compression mode                         : Lossless
    Title                                    : Fullsub [ASS][Meguca]
    Language                                 : English
    Default                                  : No
    Forced                                   : No
    
    Text #5
    ID                                       : 9
    Format                                   : ASS
    Codec ID                                 : S_TEXT/ASS
    Codec ID/Info                            : Advanced Sub Station Alpha
    Compression mode                         : Lossless
    Title                                    : Fullsub [ASS][Coalgirls]
    Language                                 : English
    Default                                  : No
    Forced                                   : No
    
    Text #6
    ID                                       : 10
    Format                                   : ASS
    Codec ID                                 : S_TEXT/ASS
    Codec ID/Info                            : Advanced Sub Station Alpha
    Compression mode                         : Lossless
    Title                                    : Fullsub [ASS][Karoshi]
    Language                                 : English
    Default                                  : No
    Forced                                   : No
    
    Text #7
    ID                                       : 11
    Format                                   : ASS
    Codec ID                                 : S_TEXT/ASS
    Codec ID/Info                            : Advanced Sub Station Alpha
    Compression mode                         : Lossless
    Title                                    : Fullsub [ASS][Coalgirls]
    Language                                 : French
    Default                                  : No
    Forced                                   : No
    
    Text #8
    ID                                       : 12
    Format                                   : ASS
    Codec ID                                 : S_TEXT/ASS
    Codec ID/Info                            : Advanced Sub Station Alpha
    Compression mode                         : Lossless
    Title                                    : Fullsub [ASS][Coalgirls]
    Language                                 : Spanish
    Default                                  : No
    Forced                                   : No
    
    Text #9
    ID                                       : 13
    Format                                   : ASS
    Codec ID                                 : S_TEXT/ASS
    Codec ID/Info                            : Advanced Sub Station Alpha
    Compression mode                         : Lossless
    Title                                    : Fullsub [ASS][ap&LD]
    Language                                 : Russian
    Default                                  : No
    Forced                                   : No
    
    Text #10
    ID                                       : 14
    Format                                   : PGS
    Muxing mode                              : zlib
    Codec ID                                 : S_HDMV/PGS
    Codec ID/Info                            : Picture based subtitle format used on BDs/HD-DVDs
    Title                                    : Forced Sub [PGS][BD]
    Language                                 : German
    Default                                  : Yes
    Forced                                   : No
    
    Text #11
    ID                                       : 15
    Format                                   : PGS
    Muxing mode                              : zlib
    Codec ID                                 : S_HDMV/PGS
    Codec ID/Info                            : Picture based subtitle format used on BDs/HD-DVDs
    Title                                    : Fullsub [PGS][BD]
    Language                                 : German
    Default                                  : No
    Forced                                   : No
    
    Text #12
    ID                                       : 16
    Format                                   : PGS
    Muxing mode                              : zlib
    Codec ID                                 : S_HDMV/PGS
    Codec ID/Info                            : Picture based subtitle format used on BDs/HD-DVDs
    Title                                    : Fullsub [PGS][BD]
    Language                                 : English
    Default                                  : No
    Forced                                   : No
    
    Text #13
    ID                                       : 17
    Format                                   : PGS
    Muxing mode                              : zlib
    Codec ID                                 : S_HDMV/PGS
    Codec ID/Info                            : Picture based subtitle format used on BDs/HD-DVDs
    Title                                    : Fullsub [PGS][BD]
    Language                                 : Japanese
    Default                                  : No
    Forced                                   : No
    
    Menu #1
    00:00:00.000                             : en:Chapter 01
    00:04:41.198                             : en:Chapter 02
    00:07:33.662                             : en:Chapter 03
    00:09:08.381                             : en:Chapter 04
    00:13:27.765                             : en:Chapter 05
    00:16:49.008                             : en:Chapter 06
    00:21:19.278                             : en:Chapter 07
    00:27:48.166                             : en:Chapter 08
    00:30:30.412                             : en:Chapter 09
    00:33:22.000                             : en:Chapter 10
    00:36:26.309                             : en:Chapter 11
    00:39:54.392                             : en:Chapter 12
    00:41:36.160                             : en:Chapter 13
    00:46:02.551                             : en:Chapter 14
    00:51:25.958                             : en:Chapter 15
    00:54:44.698                             : en:Chapter 16
    00:57:23.523                             : en:Chapter 17
    01:00:20.116                             : en:Chapter 18
    01:02:39.089                             : en:Chapter 19
    01:07:34.217                             : en:Chapter 20
    01:12:11.827                             : en:Chapter 21
    01:18:24.533                             : en:Chapter 22
    01:23:49.650                             : en:Chapter 23
    01:25:33.128                             : en:Chapter 24
    01:31:26.940                             : en:Chapter 25
    01:33:32.690                             : en:Chapter 26
    01:40:49.043                             : en:Chapter 27
    01:44:58.209                             : en:Chapter 28
    01:50:04.556                             : en:Chapter 29
    01:55:12.197                             : en:Chapter 30
    
    Menu #2
    00:00:00.000                             : en:00:00:00.000
    00:04:42.199                             : en:00:04:42.199
    00:07:34.663                             : en:00:07:34.663
    00:09:09.382                             : en:00:09:09.382
    00:13:28.766                             : en:00:13:28.766
    00:16:50.009                             : en:00:16:50.009
    00:21:20.279                             : en:00:21:20.279
    00:27:49.167                             : en:00:27:49.167
    00:30:31.413                             : en:00:30:31.413
    00:33:23.001                             : en:00:33:23.001
    00:36:27.310                             : en:00:36:27.310
    00:39:55.393                             : en:00:39:55.393
    00:41:37.161                             : en:00:41:37.161
    00:46:03.552                             : en:00:46:03.552
    00:51:26.959                             : en:00:51:26.959
    00:54:45.699                             : en:00:54:45.699
    00:57:24.524                             : en:00:57:24.524
    01:00:21.117                             : en:01:00:21.117
    01:02:40.090                             : en:01:02:40.090
    01:07:35.218                             : en:01:07:35.218
    01:12:12.828                             : en:01:12:12.828
    01:18:25.534                             : en:01:18:25.534
    01:23:50.651                             : en:01:23:50.651
    01:25:34.129                             : en:01:25:34.129
    01:31:27.941                             : en:01:31:27.941
    01:33:33.691                             : en:01:33:33.691
    01:40:50.044                             : en:01:40:50.044
    01:44:59.210                             : en:01:44:59.210
    01:50:05.557                             : en:01:50:05.557
    01:55:13.198                             : en:01:55:13.198
    
    






    Geschützter Bereich - Bedanke dich beim Poster, um den Bereich sehen zu können
    Hier erfährst Du wie Du Dich bedanken kannst oder werde jetzt Premium Mitglied ab einer Spende von 5€ und erhalte sofortigen Zugriff auf den Downloadbereich!

    [Links sind nur für registrierte und aktivierte Nutzer sichtbar. Klicke hier um dich zu registrieren.]
    !!!Alle Anliegen bezüglich Uploads werden nur mit direktem Threadlink zum Angebot bearbeitet!!!

    Re-Uploadanfragen nur per PN - Ihr könnt mir auch Listen schicken

    Re-Uploads erfolgen meist innerhalb 24h, kann aber auch bis zu 7 Tage dauern

    [Links sind nur für registrierte und aktivierte Nutzer sichtbar. Klicke hier um dich zu registrieren.] | [Links sind nur für registrierte und aktivierte Nutzer sichtbar. Klicke hier um dich zu registrieren.] | >[Links sind nur für registrierte und aktivierte Nutzer sichtbar. Klicke hier um dich zu registrieren.]<
    [Links sind nur für registrierte und aktivierte Nutzer sichtbar. Klicke hier um dich zu registrieren.]

  2. 50 Benutzer sagen Danke:

    Akio (6. April 2016),Aluaran (16. February 2016),babjasrap94 (26. May 2016),Bizzy76 (27. October 2016),Bloodyair (17. February 2016),Bullet91 (16. May 2016),chopper23 (15. February 2016),der_colamann (16. March 2016),DjRayleigh (15. February 2016),Eight (17. February 2016),Eikronas (19. September 2016),EpiX (21. August 2016),foiderbua (19. February 2016),freakwatcher (23. February 2016),harry9x (14. August 2016),Holzmodem (6. September 2016),hundekuchen (3. March 2016),IN4T0R (16. July 2016),Jinnay (16. February 2016),katey01 (2. June 2016),KeXiuS (15. February 2016),Korihana (31. March 2016),ManunaM (29. March 2016),MCRFG (21. February 2016),midnighter (27. March 2016),mpbia (7. April 2016),Mr.Shit (15. February 2016),nabou (22. February 2016),nemo (4. March 2016),old nick (27. February 2016),Petrowitsch (4. July 2016),prinzvegeta (31. May 2016),Schaedeldecke (7. October 2016),SciTeC (22. February 2016),setugen no ao (16. February 2016),Smery (17. August 2016),Smiths (29. May 2016),ssj3shad (30. March 2016),Superzorro (29. October 2016),Tana-kun (19. February 2016),Tekk (16. February 2016),Teramex (5. August 2016),Titanime (10. April 2016),tompace (14. April 2016),Tzi (29. April 2016),undertaker0951 (17. August 2016),Vivere (24. September 2016),Wides (4. March 2016),Xenom (26. July 2016),______ (5. May 2016)

Lesezeichen

Berechtigungen

  • Neue Themen erstellen: Nein
  • Themen beantworten: Nein
  • Anhänge hochladen: Nein
  • Beiträge bearbeiten: Nein
  •  

1 2 3 4 5 6 7 8 9 10 11 12 13 14 15 16 17 18 19 20 21 22 23 24 25 26 27 28 29 30 31 32 33 34 35 36 37 38 39 40 41 42 43 44 45 46 47 48 49 50 51 52 53 54 55 56 57 58 59 60 61 62 63 64 65 66 67 68 69 70 71 72 73 74 75 76 77 78 79 80 81 82 83 84 85 86 87 88 89 90 91 92 93 94 95 96 97 98 99 100 101 102 103 104 105 106 107 108 109 110 111 112 113 114 115 116 117 118 119 120 121 122 123 124 125 126 127 128 129 130 131 132 133 134 135 136 137 138 139 140 141 142 143 144 145 146 147 148 149 150 151 152 153 154 155 156 157 158