Ergebnis 1 bis 1 von 1

Thema: Mardock Scramble: The First Compression [Ger-Jap-Dub] [Ger-Sub] [10BiT] [720p] [BluRay]

Dieser Thread wurde noch nicht bewertet. Bewerte ihn doch, wenn er dir gefällt!
  1. #1
    Treues Mitglied Avatar von Sairenji
    Registriert seit
    Aug 2013
    Beiträge
    299
    Punkte
    11.339
    Errungenschaften:
    TomodachisTagger Profi10000 ErfahrungspunkteHikikomori

    Mardock Scramble: The First Compression [Ger-Jap-Dub] [Ger-Sub] [10BiT] [720p] [BluRay]





    Teil 1 der düsteren und spannenden Anime-Trilogie über die Prostituierte Rune Balot, die nach ihrer Ermordung von einem mysteriösen Arzt wiederbelebt wird und Rache an ihrem Mörder Sucht.

    Titel: Mardock Scramble: The First Compression | Genre: Animation | Sprache: Deutsch Japanisch | Untertitel: Deutsch

    Video: BluRay (10BiT) | Audio: AC3 2.0 | Format: .mkv / .mp4

    Mardock.Scramble.1.German.DL.AC3.720p.BluRay.10BiT .x264-iND

    Infos: [Links sind nur für registrierte und aktivierte Nutzer sichtbar. Klicke hier um dich zu registrieren.] | Trailer: [Links sind nur für registrierte und aktivierte Nutzer sichtbar. Klicke hier um dich zu registrieren.] | Größe: 7742 MB | Parts: 40

    Geschützter Bereich - Bedanke dich beim Poster, um den Bereich sehen zu können
    Hier erfährst Du wie Du Dich bedanken kannst oder werde jetzt Premium Mitglied ab einer Spende von 5€ und erhalte sofortigen Zugriff auf den Downloadbereich!


    NFO:
    Spoiler
    Code:
    General
    Format                      : Matroska
    Format version              : Version 4 / Version 2
    File size                   : 7.56 GiB
    Duration                    : 1h 9mn
    Overall bit rate            : 15.5 Mbps
    Encoded date                : UTC 2014-12-15 13:46:06
    Writing application         : mkvmerge v7.3.0 ('Nouages') 32bit built on Oct 22 2014 18:44:01
    Writing library             : libebml v1.3.0 + libmatroska v1.4.1
    _STATISTICS_WRITING_APP     : mkvmerge v7.3.0 ('Nouages') 32bit built on Oct 22 2014 18:44:01
    _STATISTICS_WRITING_DATE_UT : 2014-12-15 13:46:06
    _STATISTICS_TAGS            : BPS DURATION NUMBER_OF_FRAMES NUMBER_OF_BYTES
    DURATION                    : 01:08:33.067000000
    NUMBER_OF_FRAMES            : 1634
    NUMBER_OF_BYTES             : 6078739
    
    Video
    ID                          : 1
    Format                      : AVC
    Format/Info                 : Advanced Video Codec
    Format profile              : High [email protected]
    Format settings, CABAC      : Yes
    Format settings, ReFrames   : 9 frames
    Codec ID                    : V_MPEG4/ISO/AVC
    Duration                    : 1h 9mn
    Bit rate                    : 14.3 Mbps
    Width                       : 1 280 pixels
    Height                      : 720 pixels
    Display aspect ratio        : 16:9
    Frame rate mode             : Constant
    Frame rate                  : 23.976 fps
    Color space                 : YUV
    Chroma subsampling          : 4:2:0
    Bit depth                   : 10 bits
    Scan type                   : Progressive
    Bits/(Pixel*Frame)          : 0.646
    Stream size                 : 6.97 GiB (92%)
    Writing library             : x264 core 142 r2491 24e4fed
    Encoding settings           : cabac=1 / ref=9 / deblock=1:1:1 / analyse=0x3:0x133 / me=umh / subme=9 / psy=1 / psy_rd=1.00:0.00 / mixed_ref=1 / me_range=32 / chroma_me=1 / trellis=2 / 8x8dct=1 / cqm=0 / deadzone=21,11 / fast_pskip=1 / chroma_qp_offset=-2 / threads=6 / lookahead_threads=1 / sliced_threads=0 / nr=0 / decimate=1 / interlaced=0 / bluray_compat=0 / constrained_intra=0 / bframes=8 / b_pyramid=2 / b_adapt=2 / b_bias=0 / direct=3 / weightb=1 / open_gop=0 / weightp=2 / keyint=240 / keyint_min=23 / scenecut=40 / intra_refresh=0 / rc_lookahead=60 / rc=crf / mbtree=1 / crf=16.0 / qcomp=0.60 / qpmin=0 / qpmax=81 / qpstep=4 / vbv_maxrate=62500 / vbv_bufsize=78125 / crf_max=0.0 / nal_hrd=none / filler=0 / ip_ratio=1.40 / aq=1:0.60
    Default                     : Yes
    Forced                      : No
    
    Audio #1
    ID                          : 2
    Format                      : AC-3
    Format/Info                 : Audio Coding 3
    Format profile              : Dolby Digital
    Mode extension              : CM (complete main)
    Format settings, Endianness : Big
    Codec ID                    : A_AC3
    Duration                    : 1h 9mn
    Bit rate mode               : Constant
    Bit rate                    : 448 Kbps
    Channel(s)                  : 2 channels
    Channel positions           : Front: L R
    Sampling rate               : 48.0 KHz
    Bit depth                   : 16 bits
    Compression mode            : Lossy
    Stream size                 : 224 MiB (3%)
    Default                     : Yes
    Forced                      : No
    
    Audio #2
    ID                          : 3
    Format                      : AC-3
    Format/Info                 : Audio Coding 3
    Format profile              : Dolby Digital
    Mode extension              : CM (complete main)
    Format settings, Endianness : Big
    Codec ID                    : A_AC3
    Duration                    : 1h 9mn
    Bit rate mode               : Constant
    Bit rate                    : 448 Kbps
    Channel(s)                  : 2 channels
    Channel positions           : Front: L R
    Sampling rate               : 48.0 KHz
    Bit depth                   : 16 bits
    Compression mode            : Lossy
    Stream size                 : 224 MiB (3%)
    Default                     : No
    Forced                      : No
    
    Text
    ID                          : 4
    Format                      : PGS
    Muxing mode                 : zlib
    Codec ID                    : S_HDMV/PGS
    Codec ID/Info               : The same subtitle format used on BDs/HD-DVDs
    Default                     : No
    Forced                      : No


    Inaktiver Uploader!

    Alle Re-Upload-Anfragen öffentlich im [Links sind nur für registrierte und aktivierte Nutzer sichtbar. Klicke hier um dich zu registrieren.] posten!

  2. 10 Benutzer sagen Danke:

    BANDIMO (5. April 2015),Clankinator (12. October 2016),Dexter121 (22. March 2015),Infi (22. March 2015),krasserGaul (21. March 2015),Maxxo (8. November 2015),midnighter (22. March 2015),SmokingTea (15. May 2015),TokyoHazard (22. June 2016),Yoarashi (22. November 2016)

Lesezeichen

Berechtigungen

  • Neue Themen erstellen: Nein
  • Themen beantworten: Nein
  • Anhänge hochladen: Nein
  • Beiträge bearbeiten: Nein
  •  

1 2 3 4 5 6 7 8 9 10 11 12 13 14 15 16 17 18 19 20 21 22 23 24 25 26 27 28 29 30 31 32 33 34 35 36 37 38 39 40 41 42 43 44 45 46 47 48 49 50 51 52 53 54 55 56 57 58 59 60 61 62 63 64 65 66 67 68 69 70 71 72 73 74 75 76 77 78 79 80 81 82 83 84 85 86 87 88 89 90 91 92 93 94 95 96 97 98 99 100 101 102 103 104 105 106 107 108 109 110 111 112 113 114 115 116 117 118 119 120 121 122 123 124 125 126 127 128 129 130 131 132 133 134 135 136 137 138 139 140 141 142 143 144 145 146 147 148 149 150 151 152 153 154 155 156 157 158