Ergebnis 1 bis 2 von 2

Thema: Mein Nachbar Totoro [GerJapEngDub][GerEngSub][720p][1080p][Bluray]-Pate

Dieser Thread wurde noch nicht bewertet. Bewerte ihn doch, wenn er dir gefällt!
  1. #1
    Elite Avatar von Zetsu
    Registriert seit
    May 2013
    Beiträge
    685
    Punkte
    69.455
    Errungenschaften:
    TomodachisKapitänTagger Profi50000 ErfahrungspunkteHikikomori

    Mein Nachbar Totoro [GerJapEngDub][GerEngSub][720p][1080p][Bluray]-Pate



    Tonari no Totoro
    となりのトトロ
    My Neighbor Totoro
    Mein Nachbar Totoro






    Kurzbeschreibung
    Satsuki, Mei und ihr Vater ziehen in eine neue Heimat. Als sie dort eintreffen, kommen die beiden Mädchen nicht mehr aus dem Staunen heraus. Das Haus ähnelt einem Geisterhaus, doch das macht den beiden nichts aus, denn für sie ist der Ort wie ein großer Spielplatz. Als sie das Haus erkunden, sehen sie kleine Rußmännchen und hasenähnliche Wesen. Auch als Mei den Garten erkundet, entdeckt sie eines von den Wesen. Es ist der Herr des Waldes und heißt Totoro. Doch die Freude währt nicht lange, die Mutter von Satsuki und Mei liegt im Krankenhaus...ob Totoro den beiden Mädchen helfen kann?

    ✰ Spieldauer: 86 Min. ✰
    ✰ Source: BluRay ✰
    ✰ Format: Mkv ✰
    ✰ Video-Codec: x264 ✰
    ✰ Resolution: 1280 x 692, 1920 x 1040 ✰
    ✰ Sprache: Deutsch, Japanisch, Englisch ✰
    ✰ Untertitel: Deutsch, Englisch ✰
    ✰ Größe: 4300MB (720p), 10700MB (1080p) ✰
    ✰ Releaser: Pate ✰
    ✰ Hoster: Share-Online Uploaded ✰


    Details
    Spoiler

    720p
    Spoiler

    Code:
    General           : Mein.Nachbar.Totoro.1988.German.AC3.ML.720p.BluRay.x264-Pate
    Format            : Matroska at 7 178 Kbps
    Length            : 4,33 GiB for 1h 26min 25s 184ms
    
    Video #0          : Pate 720p
    Format            : AVC 8 bits at 6 400 Kbps
    Aspect            : 1280 x 692 (1.850) at 23.976 fps
    Streamsize        : 3,78 GiB (87%)
    
    Audio #0          : AC3 2.0
    Format            : AC-3 at 192 Kbps
    Infos             : 2 Kanäle, 48,0 KHz
    Language          : Deutsch
    Streamsize        : 119 MiB (3%)
    
    Audio #1          : AC3 2.0
    Format            : AC-3 at 384 Kbps
    Infos             : 2 Kanäle, 48,0 KHz
    Language          : Japanisch
    Streamsize        : 237 MiB (5%)
    
    Audio #2          : AC3 2.0
    Format            : AC-3 at 192 Kbps
    Infos             : 2 Kanäle, 48,0 KHz
    Language          : Englisch
    Streamsize        : 119 MiB (3%)
    
    Text #0           : Forced Subs ASS
    Format            : ASS
    Language          : Deutsch
    
    Text #1           : Full Subs ASS
    Format            : ASS
    Language          : Deutsch
    
    Text #2           : Full Subs VobSub
    Format            : VobSub
    Language          : Deutsch
    
    Text #3           : Full Subs VobSub
    Format            : VobSub
    Language          : Englisch
    1080p
    Spoiler

    Code:
    General           : Mein.Nachbar.Totoro.1988.German.AC3.ML.1080p.BluRay.x264-Pate
    Format            : Matroska at 17,7 Mbps
    Length            : 10,7 GiB for 1h 26min 25s 184ms
    
    Video #0          : Pate 1080p
    Format            : AVC 8 bits at 16,6 Mbps
    Aspect            : 1920 x 1040 (1.846) at 23.976 fps
    Streamsize        : 9,99 GiB (94%)
    
    Audio #0          : AC3 2.0
    Format            : AC-3 at 192 Kbps
    Infos             : 2 Kanäle, 48,0 KHz
    Language          : Deutsch
    Streamsize        : 119 MiB (1%)
    
    Audio #1          : AC3 2.0
    Format            : AC-3 at 384 Kbps
    Infos             : 2 Kanäle, 48,0 KHz
    Language          : Japanisch
    Streamsize        : 237 MiB (2%)
    
    Audio #2          : AC3 2.0
    Format            : AC-3 at 192 Kbps
    Infos             : 2 Kanäle, 48,0 KHz
    Language          : Englisch
    Streamsize        : 119 MiB (1%)
    
    Text #0           : Forced Subs ASS
    Format            : ASS
    Language          : Deutsch
    
    Text #1           : Full Subs ASS
    Format            : ASS
    Language          : Deutsch
    
    Text #2           : Full Subs VobSub
    Format            : VobSub
    Language          : Deutsch
    
    Text #3           : Full Subs VobSub
    Format            : VobSub
    Language          : Englisch



    Geschützter Bereich - Bedanke dich beim Poster, um den Bereich sehen zu können
    Hier erfährst Du wie Du Dich bedanken kannst oder werde jetzt Premium Mitglied ab einer Spende von 5€ und erhalte sofortigen Zugriff auf den Downloadbereich!


    Geändert von Zetsu (26. May 2014 um 21:14 Uhr)
    Inaktiver Uploader!

    Alle Re-Upload-Anfragen öffentlich im [Links sind nur für registrierte und aktivierte Nutzer sichtbar. Klicke hier um dich zu registrieren.] posten!

  2. 186 Benutzer sagen Danke:

    Anzeigen

    ソウル イーター  (6. September 2013),フェアリーテイル (5. April 2015),1234Ace1234 (19. January 2016),4myAss (31. October 2014),Akbah (14. February 2015),Akio (23. August 2015),Akulti (3. July 2014),alecander (6. November 2013),Alviaz_inactive (9. April 2015),AmaSusE (27. July 2013),Amedala (29. March 2014),anime-fan (13. August 2015),anno_nami (14. October 2013),app82_inactive (4. January 2015),ArMiN231 (11. February 2014),Asturaetus (25. August 2014),Azuya (20. January 2015),Bamboo91 (5. January 2015),Bamoida (24. May 2016),basdi (4. February 2016),bayerle92 (26. June 2015),benkra (4. March 2015),Bizzy76 (1. February 2014),Black Lotus (14. December 2014),Black Star (1. September 2013),Bullet91 (18. August 2015),bYgmenot (2. October 2014),cat 86 (8. July 2015),Ch1quita (8. February 2016),Chrissi89 (6. February 2015),CrystalBT (14. December 2015),DarkTerminator (29. July 2016),DeathBeast88 (24. February 2014),Delvius (19. July 2014),doodledidum (14. January 2014),edge165 (9. September 2014),encephalon (2. April 2016),ErrorSource (6. January 2015),eston (25. June 2015),Evil95 (26. December 2013),Farelliser (3. October 2014),FIRST--LAW--FANTASY (8. April 2015),floydd (12. August 2014),fonomonochan (21. October 2014),freakwatcher (27. September 2015),FreakyPriest (7. July 2016),Freeker (31. July 2014),Frekuensi (9. August 2015),galudo (25. March 2016),Gatti1983 (14. March 2015),Genx (25. February 2015),Golff22 (19. December 2013),GutiHaz_14 (25. February 2014),hanismustismann (15. May 2015),Hans (20. October 2013),Hithilion (9. April 2014),HotToast (24. January 2014),Hououin Kyouma (19. February 2014),House (20. September 2013),Hyrikan (19. June 2015),iCornflakes (21. April 2015),Infi (27. February 2014),infinity (5. September 2013),ippo (18. February 2016),Itachi.Uchiha (9. July 2014),izibitzi_inactive (24. January 2015),jhabsdakhvsdjva (31. May 2014),Jisagi (15. January 2016),Jubba (9. August 2015),JugoBetrugo (12. October 2015),Julz (1. August 2015),JustHumba (3. May 2015),Kaan- (2. May 2016),Kaito17 (4. November 2013),Kaldo (5. February 2015),Kartox (26. December 2013),kekkei (29. March 2014),keoma (25. January 2014),kiks (4. February 2015),Kirak (31. March 2014),kloricker (17. September 2013),Koinzell_inactive (23. June 2015),Kokujou (6. December 2013),Kthulhut (14. February 2016),Kuraiko55 (9. February 2015),Kuroko (30. October 2013),LB31 (3. August 2014),LetsPhoenixPlay (2. January 2015),LomeaDae (17. April 2015),LowT (4. September 2015),Luchsius (5. August 2014),Luckey_inactive (2. August 2015),luko8000 (16. April 2015),Lunacy (1. November 2014),lutiju (12. February 2014),Lynexx (14. January 2014),Magikarp (4. May 2015),malgoris (13. June 2014),Manelig (12. September 2014),manuel4193 (26. July 2014),ManunaM (17. March 2016),mar3el (19. August 2016),mariokeks (2. March 2015),Marvash (1. April 2014),massakaa (4. August 2014),Mathonwy (6. July 2015),MDRuffy (26. October 2014),megabumer (5. December 2014),Memati53 (9. September 2014),midnighter (23. February 2015),Miharu (29. November 2015),minimalistix (7. November 2013),MissKaitouKid (11. May 2015),Mosa (2. January 2016),mou5e (22. March 2014),naban (7. November 2014),Narktor (18. September 2014),NeoGreen (2. May 2014),Neyzu (19. March 2016),Nickshahin (16. March 2014),noizmaker (22. March 2015),NotGaben (26. April 2015),Novakiller (16. January 2015),npmusiQ (29. September 2015),Number11 (14. September 2014),OtakuNeo.so (25. January 2014),Ovaron (9. October 2013),passi (5. December 2015),Paulus (24. August 2014),Porco (5. April 2015),punk95 (28. February 2015),Ramirez (10. November 2013),Raphael96 (1. February 2016),realmadridcf (19. February 2016),revil (8. October 2013),ribery_1980 (21. September 2014),riku14466 (22. April 2014),RisingJack (19. May 2014),Ronae (10. April 2015),Roy_Coleman (6. April 2015),RX333 (9. August 2014),saabwx (16. March 2015),Sairenji (4. April 2015),sangheilie (4. September 2015),ScaMir (11. August 2014),Schwarzer_Wolf (7. March 2015),Seki (28. January 2015),SerienStream (16. September 2014),Shana:3 (18. July 2015),Sharan955 (24. April 2016),SheepEater (15. June 2015),Shikur0 (13. May 2015),SiiiNaN (15. April 2015),Skl3ros (13. October 2014),slyZer (27. March 2014),Smery (21. March 2016),Spank_inactive (3. March 2014),ssj3shad (4. May 2014),Stoneman (11. May 2014),sunfun16 (24. August 2014),Sunray (24. January 2014),supachi_inactive (17. June 2015),Susch (2. August 2015),swisscub_inactive (30. March 2014),syncity (31. October 2013),The_Iron (3. September 2013),Thomac (18. May 2016),Toad (5. February 2016),tp9rkoWOak79rEXPVxnB (15. February 2014),treehe_inactive (16. August 2014),TrickSeven (16. April 2015),Twyla42 (29. July 2013),Type-0 (19. December 2013),Tysar (10. September 2016),ultrasn0w (4. January 2016),UndeadBan (8. July 2016),Usumaina (26. February 2014),Verdemis (27. April 2015),volker027 (19. April 2014),Xers (3. May 2015),xRin (22. July 2014),Zaisen (12. May 2013),zeldax (14. April 2016),zeroscorp (4. June 2014),Zukoaz (26. July 2015),zutunu (24. January 2015)

  3. #2
    Treues Mitglied Avatar von Sairenji
    Registriert seit
    Aug 2013
    Beiträge
    299
    Punkte
    11.339
    Errungenschaften:
    TomodachisTagger Profi10000 ErfahrungspunkteHikikomori

    Mein Nachbar Totoro [Ger-Eng-Jap-Dub] [Ger-Eng-Sub] [720p] [BluRay]





    Satsuki und Mei ziehen mit ihrem Vater aufs Land. Die kleinen Mädchen machen sofort Bekanntschaft mit winzigen Hausgeistern. Und lernen kurz darauf den sagenumwobenen Waldgeist kennen, den großen Totoro. Er wird ihr Beschützer. Als Mei eines Tages verschwindet, hilft Totoro der aufgeregten Satsuki bei der Suche.

    Titel: Mein Nachbar Totoro | Genre: Animation | Sprache: Deutsch Englisch Japanisch | Untertitel: Deutsch

    Video: BluRay | Audio: AC3 2.0 | Format: .mkv / .mp4

    Mein.Nachbar.Totoro.1988.German.AC3.ML.720p.BluRay .x264-Pate

    Infos: [Links sind nur für registrierte und aktivierte Nutzer sichtbar. Klicke hier um dich zu registrieren.] | Trailer: [Links sind nur für registrierte und aktivierte Nutzer sichtbar. Klicke hier um dich zu registrieren.] | Größe: 4437 MB | Parts: 9

    Geschützter Bereich - Bedanke dich beim Poster, um den Bereich sehen zu können
    Hier erfährst Du wie Du Dich bedanken kannst oder werde jetzt Premium Mitglied ab einer Spende von 5€ und erhalte sofortigen Zugriff auf den Downloadbereich!


    NFO:
    Spoiler
    Code:
    General
    Format                      : Matroska
    Format version              : Version 2
    File size                   : 4.33 GiB
    Duration                    : 1h 26mn
    Overall bit rate            : 7 178 Kbps
    Encoded date                : UTC 2012-07-25 20:16:08
    Writing application         : mkvmerge v3.4.0 ('Rapunzel') gebaut am May 15 2010 09:38:20
    Writing library             : libebml v0.8.0 + libmatroska v0.9.0
    
    Video
    ID                          : 1
    Format                      : AVC
    Format/Info                 : Advanced Video Codec
    Format profile              : [email protected]
    Format settings, CABAC      : Yes
    Format settings, ReFrames   : 9 frames
    Codec ID                    : V_MPEG4/ISO/AVC
    Duration                    : 1h 26mn
    Bit rate                    : 6 400 Kbps
    Width                       : 1 280 pixels
    Height                      : 692 pixels
    Display aspect ratio        : 1.85:1
    Frame rate mode             : Constant
    Frame rate                  : 23.976 fps
    Color space                 : YUV
    Chroma subsampling          : 4:2:0
    Bit depth                   : 8 bits
    Scan type                   : Progressive
    Bits/(Pixel*Frame)          : 0.301
    Stream size                 : 3.78 GiB (87%)
    Title                       : Pate 720p
    Writing library             : x264 Pate                  
    Encoding settings           : cabac=1 / ref=9 / deblock=1:-3:-3 / analyse=0x3:0x113 / me=umh / subme=10 / psy=1 / psy_rd=1.05:0.00 / mixed_ref=1 / me_range=24 / chroma_me=1 / trellis=2 / 8x8dct=1 / cqm=0 / deadzone=21,11 / fast_pskip=0 / chroma_qp_offset=-2 / threads=12 / lookahead_threads=3 / sliced_threads=0 / nr=0 / decimate=0 / interlaced=0 / bluray_compat=0 / constrained_intra=0 / bframes=8 / b_pyramid=2 / b_adapt=2 / b_bias=0 / direct=3 / weightb=1 / open_gop=0 / weightp=2 / keyint=240 / keyint_min=24 / scenecut=40 / intra_refresh=0 / rc_lookahead=60 / rc=2pass / mbtree=1 / bitrate=6400 / ratetol=1.0 / qcomp=0.75 / qpmin=0 / qpmax=69 / qpstep=4 / cplxblur=20.0 / qblur=0.5 / ip_ratio=1.40 / aq=1:1.10
    Language                    : German
    Default                     : Yes
    Forced                      : Yes
    
    Audio #1
    ID                          : 2
    Format                      : AC-3
    Format/Info                 : Audio Coding 3
    Format profile              : Dolby Digital
    Mode extension              : CM (complete main)
    Format settings, Endianness : Big
    Codec ID                    : A_AC3
    Duration                    : 1h 26mn
    Bit rate mode               : Constant
    Bit rate                    : 192 Kbps
    Channel(s)                  : 2 channels
    Channel positions           : Front: L R
    Sampling rate               : 48.0 KHz
    Bit depth                   : 16 bits
    Compression mode            : Lossy
    Stream size                 : 119 MiB (3%)
    Title                       : AC3 2.0
    Language                    : German
    Default                     : Yes
    Forced                      : Yes
    
    Audio #2
    ID                          : 3
    Format                      : AC-3
    Format/Info                 : Audio Coding 3
    Mode extension              : CM (complete main)
    Format settings, Endianness : Big
    Codec ID                    : A_AC3
    Duration                    : 1h 26mn
    Bit rate mode               : Constant
    Bit rate                    : 384 Kbps
    Channel(s)                  : 2 channels
    Channel positions           : Front: L R
    Sampling rate               : 48.0 KHz
    Bit depth                   : 16 bits
    Compression mode            : Lossy
    Stream size                 : 237 MiB (5%)
    Title                       : AC3 2.0
    Language                    : Japanese
    Default                     : No
    Forced                      : No
    
    Audio #3
    ID                          : 4
    Format                      : AC-3
    Format/Info                 : Audio Coding 3
    Mode extension              : CM (complete main)
    Format settings, Endianness : Big
    Codec ID                    : A_AC3
    Duration                    : 1h 26mn
    Bit rate mode               : Constant
    Bit rate                    : 192 Kbps
    Channel(s)                  : 2 channels
    Channel positions           : Front: L R
    Sampling rate               : 48.0 KHz
    Bit depth                   : 16 bits
    Compression mode            : Lossy
    Stream size                 : 119 MiB (3%)
    Title                       : AC3 2.0
    Language                    : English
    Default                     : No
    Forced                      : No
    
    Text #1
    ID                          : 5
    Format                      : ASS
    Codec ID                    : S_TEXT/ASS
    Codec ID/Info               : Advanced Sub Station Alpha
    Compression mode            : Lossless
    Title                       : Forced Subs ASS
    Language                    : German
    Default                     : Yes
    Forced                      : Yes
    
    Text #2
    ID                          : 6
    Format                      : ASS
    Codec ID                    : S_TEXT/ASS
    Codec ID/Info               : Advanced Sub Station Alpha
    Compression mode            : Lossless
    Title                       : Full Subs ASS
    Language                    : German
    Default                     : No
    Forced                      : No
    
    Text #3
    ID                          : 7
    Format                      : VobSub
    Muxing mode                 : zlib
    Codec ID                    : S_VOBSUB
    Codec ID/Info               : The same subtitle format used on DVDs
    Title                       : Full Subs VobSub
    Language                    : German
    Default                     : No
    Forced                      : No
    
    Text #4
    ID                          : 8
    Format                      : VobSub
    Muxing mode                 : zlib
    Codec ID                    : S_VOBSUB
    Codec ID/Info               : The same subtitle format used on DVDs
    Title                       : Full Subs VobSub
    Language                    : English
    Default                     : No
    Forced                      : No










    Satsuki und Mei ziehen mit ihrem Vater aufs Land. Die kleinen Mädchen machen sofort Bekanntschaft mit winzigen Hausgeistern. Und lernen kurz darauf den sagenumwobenen Waldgeist kennen, den großen Totoro. Er wird ihr Beschützer. Als Mei eines Tages verschwindet, hilft Totoro der aufgeregten Satsuki bei der Suche.

    Titel: Mein Nachbar Totoro | Genre: Animation | Sprache: Deutsch Englisch Japanisch | Untertitel: Deutsch

    Video: BluRay | Audio: AC3 2.0 | Format: .mkv / .mp4

    Mein.Nachbar.Totoro.1988.German.AC3.ML.1080p.BluRa y.x264-Pate

    Infos: [Links sind nur für registrierte und aktivierte Nutzer sichtbar. Klicke hier um dich zu registrieren.] | Trailer: [Links sind nur für registrierte und aktivierte Nutzer sichtbar. Klicke hier um dich zu registrieren.] | Größe: 10927 MB | Parts: 22

    Geschützter Bereich - Bedanke dich beim Poster, um den Bereich sehen zu können
    Hier erfährst Du wie Du Dich bedanken kannst oder werde jetzt Premium Mitglied ab einer Spende von 5€ und erhalte sofortigen Zugriff auf den Downloadbereich!


    NFO:
    Spoiler
    Code:
    General
    Format                      : Matroska
    Format version              : Version 2
    File size                   : 10.7 GiB
    Duration                    : 1h 26mn
    Overall bit rate            : 17.7 Mbps
    Encoded date                : UTC 2012-07-25 22:00:46
    Writing application         : mkvmerge v3.4.0 ('Rapunzel') gebaut am May 15 2010 09:38:20
    Writing library             : libebml v0.8.0 + libmatroska v0.9.0
    
    Video
    ID                          : 1
    Format                      : AVC
    Format/Info                 : Advanced Video Codec
    Format profile              : [email protected]
    Format settings, CABAC      : Yes
    Format settings, ReFrames   : 4 frames
    Codec ID                    : V_MPEG4/ISO/AVC
    Duration                    : 1h 26mn
    Bit rate                    : 16.6 Mbps
    Nominal bit rate            : 15.0 Mbps
    Width                       : 1 920 pixels
    Height                      : 1 040 pixels
    Display aspect ratio        : 1.85:1
    Frame rate mode             : Constant
    Frame rate                  : 23.976 fps
    Color space                 : YUV
    Chroma subsampling          : 4:2:0
    Bit depth                   : 8 bits
    Scan type                   : Progressive
    Bits/(Pixel*Frame)          : 0.346
    Stream size                 : 9.99 GiB (94%)
    Title                       : Pate 1080p
    Writing library             : x264 PATE                  
    Encoding settings           : cabac=1 / ref=4 / deblock=1:-3:-3 / analyse=0x3:0x113 / me=esa / subme=10 / psy=1 / psy_rd=1.15:0.00 / mixed_ref=1 / me_range=24 / chroma_me=1 / trellis=2 / 8x8dct=1 / cqm=0 / deadzone=21,11 / fast_pskip=0 / chroma_qp_offset=-2 / threads=18 / lookahead_threads=3 / sliced_threads=0 / nr=0 / decimate=0 / interlaced=0 / bluray_compat=0 / constrained_intra=0 / bframes=8 / b_pyramid=2 / b_adapt=2 / b_bias=0 / direct=3 / weightb=1 / open_gop=0 / weightp=2 / keyint=240 / keyint_min=24 / scenecut=40 / intra_refresh=0 / rc_lookahead=60 / rc=2pass / mbtree=1 / bitrate=15000 / ratetol=1.0 / qcomp=0.70 / qpmin=0 / qpmax=69 / qpstep=4 / cplxblur=20.0 / qblur=0.5 / ip_ratio=1.40 / aq=1:1.10
    Language                    : German
    Default                     : Yes
    Forced                      : Yes
    
    Audio #1
    ID                          : 2
    Format                      : AC-3
    Format/Info                 : Audio Coding 3
    Format profile              : Dolby Digital
    Mode extension              : CM (complete main)
    Format settings, Endianness : Big
    Codec ID                    : A_AC3
    Duration                    : 1h 26mn
    Bit rate mode               : Constant
    Bit rate                    : 192 Kbps
    Channel(s)                  : 2 channels
    Channel positions           : Front: L R
    Sampling rate               : 48.0 KHz
    Bit depth                   : 16 bits
    Compression mode            : Lossy
    Stream size                 : 119 MiB (1%)
    Title                       : AC3 2.0
    Language                    : German
    Default                     : Yes
    Forced                      : Yes
    
    Audio #2
    ID                          : 3
    Format                      : AC-3
    Format/Info                 : Audio Coding 3
    Mode extension              : CM (complete main)
    Format settings, Endianness : Big
    Codec ID                    : A_AC3
    Duration                    : 1h 26mn
    Bit rate mode               : Constant
    Bit rate                    : 384 Kbps
    Channel(s)                  : 2 channels
    Channel positions           : Front: L R
    Sampling rate               : 48.0 KHz
    Bit depth                   : 16 bits
    Compression mode            : Lossy
    Stream size                 : 237 MiB (2%)
    Title                       : AC3 2.0
    Language                    : Japanese
    Default                     : No
    Forced                      : No
    
    Audio #3
    ID                          : 4
    Format                      : AC-3
    Format/Info                 : Audio Coding 3
    Mode extension              : CM (complete main)
    Format settings, Endianness : Big
    Codec ID                    : A_AC3
    Duration                    : 1h 26mn
    Bit rate mode               : Constant
    Bit rate                    : 192 Kbps
    Channel(s)                  : 2 channels
    Channel positions           : Front: L R
    Sampling rate               : 48.0 KHz
    Bit depth                   : 16 bits
    Compression mode            : Lossy
    Stream size                 : 119 MiB (1%)
    Title                       : AC3 2.0
    Language                    : English
    Default                     : No
    Forced                      : No
    
    Text #1
    ID                          : 5
    Format                      : ASS
    Codec ID                    : S_TEXT/ASS
    Codec ID/Info               : Advanced Sub Station Alpha
    Compression mode            : Lossless
    Title                       : Forced Subs ASS
    Language                    : German
    Default                     : Yes
    Forced                      : Yes
    
    Text #2
    ID                          : 6
    Format                      : ASS
    Codec ID                    : S_TEXT/ASS
    Codec ID/Info               : Advanced Sub Station Alpha
    Compression mode            : Lossless
    Title                       : Full Subs ASS
    Language                    : German
    Default                     : No
    Forced                      : No
    
    Text #3
    ID                          : 7
    Format                      : VobSub
    Muxing mode                 : zlib
    Codec ID                    : S_VOBSUB
    Codec ID/Info               : The same subtitle format used on DVDs
    Title                       : Full Subs VobSub
    Language                    : German
    Default                     : No
    Forced                      : No
    
    Text #4
    ID                          : 8
    Format                      : VobSub
    Muxing mode                 : zlib
    Codec ID                    : S_VOBSUB
    Codec ID/Info               : The same subtitle format used on DVDs
    Title                       : Full Subs VobSub
    Language                    : English
    Default                     : No
    Forced                      : No


    Inaktiver Uploader!

    Alle Re-Upload-Anfragen öffentlich im [Links sind nur für registrierte und aktivierte Nutzer sichtbar. Klicke hier um dich zu registrieren.] posten!

  4. 15 Benutzer sagen Danke:

    Akio (23. August 2015),Bamoida (24. May 2016),basdi (4. February 2016),galudo (25. March 2016),ippo (18. February 2016),KuroVitt (8. January 2016),mar3el (19. August 2016),Miharu (29. November 2015),MissKaitouKid (11. May 2015),Mosa (2. January 2016),Sharan955 (24. April 2016),Thomac (18. May 2016),Toad (5. February 2016),UndeadBan (8. July 2016),zeldax (14. April 2016)

Lesezeichen

Berechtigungen

  • Neue Themen erstellen: Nein
  • Themen beantworten: Nein
  • Anhänge hochladen: Nein
  • Beiträge bearbeiten: Nein
  •  

1 2 3 4 5 6 7 8 9 10 11 12 13 14 15 16 17 18 19 20 21 22 23 24 25 26 27 28 29 30 31 32 33 34 35 36 37 38 39 40 41 42 43 44 45 46 47 48 49 50 51 52 53 54 55 56 57 58 59 60 61 62 63 64 65 66 67 68 69 70 71 72 73 74 75 76 77 78 79 80 81 82 83 84 85 86 87 88 89 90 91 92 93 94 95 96 97 98 99 100 101 102 103 104 105 106 107 108 109 110 111 112 113 114 115 116 117 118 119 120 121 122 123 124 125 126 127 128 129 130 131 132 133 134 135 136 137 138 139 140 141 142 143 144 145 146 147 148 149 150 151 152 153 154 155 156 157 158