Ergebnis 1 bis 1 von 1

Thema: Meine Nachbarn die Yamadas (1999) + Extras [Ger-Jap-Eng-Dub][AC3][DTS-HD MA][FLAC][Ger-Eng-Sub][1080p][Remux][Blu-ray]-SantaKlaus

Dieser Thread wurde noch nicht bewertet. Bewerte ihn doch, wenn er dir gefällt!
  1. #1
    Kleiner Experte Avatar von SantaKlaus
    Registriert seit
    Feb 2014
    Beiträge
    103
    Punkte
    5.867
    Errungenschaften:
    Hikikomori5000 Erfahrungspunkte

    Meine Nachbarn die Yamadas (1999) + Extras [Ger-Jap-Eng-Dub][AC3][DTS-HD MA][FLAC][Ger-Eng-Sub][1080p][Remux][Blu-ray]-SantaKlaus

    Meine Nachbarn die Yamadas
    Hoohokekyo Tonari no Yamada-kun
    ホーホケキョとなりの山田くん






    Kurzbeschreibung:
    Bei den Yamadas handelt es sich um eine ganz normale japanische Familie, was für den im Büro gestressten Vater bedeutet, dass er sich schon mal mit einer Banane als Abendessen abfinden muss, wenn er nach einem schweren Tag erschöpft nach Hause kommt. Andererseits erweist er sich als durchaus zögerlich, wenn es gilt, eine lärmende Motorradgang in die Schranken zu verweisen - was schließlich Großmutter Shige vorbehalten bleibt. Kein Wunder also, dass sich der heranwachsende Noboru andere Eltern wünscht und seine kleine Schwester Nononoko die Neigung hat, im Einkaufszentrum verloren zu gehen.


    Format: 16:9
    Auflösung: 1920x1080
    Source: JP Blu-ray, UK Blu-ray, DE DVD
    Codec: AVC
    Hoster: Share-Online
    Ton:
    Deutsch Dolby Digital 5.1 (JP BD)
    Japanisch DTS-HD MA 5.1 (JP BD)
    Japanisch FLAC 2.0 (JP BD als PCM)
    Englisch DTS-HD MA 5.1 (UK BD)
    Untertitel:
    Deutsch forced SRT (DE DVD)
    Deutsch full PGS (JP BD)
    Englisch full PGS (JP BD)
    Extras wurden vorrangig der UK BD entnommen und mit UTs der DE DVD als SRT untertitelt.

    Spoiler
    Code:
    Meine Nachbarn die Yamadas (1999)/Meine Nachbarn die Yamadas (1999).mkv
    Meine Nachbarn die Yamadas (1999)/Behind The Scenes/Behind The Microphone.mkv
    Meine Nachbarn die Yamadas (1999)/Behind The Scenes/NTV Special Program - Super TV '15 Months Exclusive Coverage- Secrets of My Neighbors the Yamadas'.mkv
    Meine Nachbarn die Yamadas (1999)/Scenes/Storyboards.mkv
    Meine Nachbarn die Yamadas (1999)/Scenes/UK BD Menu.mkv
    Meine Nachbarn die Yamadas (1999)/Trailers/Promotion Film 1.mkv
    Meine Nachbarn die Yamadas (1999)/Trailers/Promotion Film 2.mkv
    Meine Nachbarn die Yamadas (1999)/Trailers/Special Promo 1.mkv
    Meine Nachbarn die Yamadas (1999)/Trailers/Special Promo 2.mkv (von JP BD ohne UT)
    Meine Nachbarn die Yamadas (1999)/Trailers/Trailer 1.mkv
    Meine Nachbarn die Yamadas (1999)/Trailers/Trailer 2.mkv
    Meine Nachbarn die Yamadas (1999)/Trailers/TV Spot 1.mkv
    Meine Nachbarn die Yamadas (1999)/Trailers/TV Spot 2.mkv
    Meine Nachbarn die Yamadas (1999)/Trailers/TV Spot 3.mkv
    Meine Nachbarn die Yamadas (1999)/Trailers/TV Spot 4.mkv


    Spoiler
    Code:
    General
    Unique ID                   : 237410979812769730892014378459512230643 (0xB29BB1071CB55A8381AD73015154D2F3)
    Complete name               : Meine Nachbarn die Yamadas (1999).mkv
    Format                      : Matroska
    Format version              : Version 4 / Version 2
    File size                   : 31.7 GiB
    Duration                    : 1h 43mn
    Overall bit rate mode       : Variable
    Overall bit rate            : 43.7 Mbps
    Movie name                  : My Neighbors the Yamadas
    Encoded date                : UTC 2016-03-12 12:56:11
    Writing application         : mkvmerge v8.9.0 ('Father Daughter') 64bit
    Writing library             : libebml v1.3.3 + libmatroska v1.4.4
    
    Video
    ID                          : 1
    Format                      : AVC
    Format/Info                 : Advanced Video Codec
    Format profile              : [email protected]
    Format settings, CABAC      : Yes
    Format settings, ReFrames   : 2 frames
    Codec ID                    : V_MPEG4/ISO/AVC
    Duration                    : 1h 43mn
    Bit rate                    : 35.9 Mbps
    Width                       : 1 920 pixels
    Height                      : 1 080 pixels
    Display aspect ratio        : 16:9
    Frame rate mode             : Constant
    Frame rate                  : 23.976 (24000/1001) fps
    Color space                 : YUV
    Chroma subsampling          : 4:2:0
    Bit depth                   : 8 bits
    Scan type                   : Progressive
    Bits/(Pixel*Frame)          : 0.723
    Stream size                 : 26.0 GiB (82%)
    Language                    : Japanese
    Default                     : Yes
    Forced                      : No
    
    Audio #1
    ID                          : 2
    Format                      : AC-3
    Format/Info                 : Audio Coding 3
    Mode extension              : CM (complete main)
    Format settings, Endianness : Big
    Codec ID                    : A_AC3
    Duration                    : 1h 43mn
    Bit rate mode               : Constant
    Bit rate                    : 640 Kbps
    Channel(s)                  : 6 channels
    Channel positions           : Front: L C R, Side: L R, LFE
    Sampling rate               : 48.0 KHz
    Frame rate                  : 31.250 fps (1536 spf)
    Compression mode            : Lossy
    Delay relative to video     : 28ms
    Stream size                 : 475 MiB (1%)
    Language                    : German
    Default                     : Yes
    Forced                      : No
    
    Audio #2
    ID                          : 3
    Format                      : DTS
    Format/Info                 : Digital Theater Systems
    Format profile              : MA / Core
    Mode                        : 16
    Format settings, Endianness : Big
    Codec ID                    : A_DTS
    Duration                    : 1h 43mn
    Bit rate mode               : Variable / Constant
    Bit rate                    : 2 314 Kbps / 1 509 Kbps
    Channel(s)                  : 6 channels
    Channel positions           : Front: L C R, Side: L R, LFE
    Sampling rate               : 48.0 KHz
    Frame rate                  : 93.750 fps (512 spf)
    Bit depth                   : 16 bits
    Compression mode            : Lossless / Lossy
    Delay relative to video     : 7ms
    Stream size                 : 1.68 GiB (5%)
    Language                    : Japanese
    Default                     : No
    Forced                      : No
    
    Audio #3
    ID                          : 4
    Format                      : FLAC
    Format/Info                 : Free Lossless Audio Codec
    Codec ID                    : A_FLAC
    Duration                    : 1h 43mn
    Bit rate mode               : Variable
    Bit rate                    : 618 Kbps
    Channel(s)                  : 2 channels
    Channel positions           : Front: L R
    Sampling rate               : 48.0 KHz
    Frame rate                  : 10.417 fps (4608 spf)
    Bit depth                   : 16 bits
    Stream size                 : 458 MiB (1%)
    Writing library             : MakeMKV v1.9.9 win(x64-release)
    Language                    : Japanese
    Default                     : No
    Forced                      : No
    
    Audio #4
    ID                          : 5
    Format                      : DTS
    Format/Info                 : Digital Theater Systems
    Format profile              : MA / Core
    Mode                        : 16
    Format settings, Endianness : Big
    Codec ID                    : A_DTS
    Duration                    : 1h 43mn
    Bit rate mode               : Variable / Constant
    Bit rate                    : 4 263 Kbps / 1 509 Kbps
    Channel(s)                  : 6 channels
    Channel positions           : Front: L C R, Side: L R, LFE
    Sampling rate               : 48.0 KHz
    Frame rate                  : 93.750 fps (512 spf)
    Bit depth                   : 24 bits
    Compression mode            : Lossless / Lossy
    Delay relative to video     : 459ms
    Stream size                 : 3.09 GiB (10%)
    Language                    : English
    Default                     : No
    Forced                      : No
    
    Text #1
    ID                          : 6
    Format                      : UTF-8
    Codec ID                    : S_TEXT/UTF8
    Codec ID/Info               : UTF-8 Plain Text
    Duration                    : 1s 376ms
    Bit rate                    : 104 bps
    Count of elements           : 1
    Stream size                 : 18.0 Bytes (0%)
    Language                    : German
    Default                     : Yes
    Forced                      : Yes
    
    Text #2
    ID                          : 7
    Format                      : PGS
    Muxing mode                 : zlib
    Codec ID                    : S_HDMV/PGS
    Codec ID/Info               : Picture based subtitle format used on BDs/HD-DVDs
    Duration                    : 1h 39mn
    Bit rate                    : 8 958 bps
    Count of elements           : 1894
    Stream size                 : 6.37 MiB (0%)
    Language                    : German
    Default                     : No
    Forced                      : No
    
    Text #3
    ID                          : 8
    Format                      : PGS
    Muxing mode                 : zlib
    Codec ID                    : S_HDMV/PGS
    Codec ID/Info               : Picture based subtitle format used on BDs/HD-DVDs
    Duration                    : 1h 43mn
    Bit rate                    : 8 995 bps
    Count of elements           : 2207
    Stream size                 : 6.66 MiB (0%)
    Language                    : English
    Default                     : No
    Forced                      : No
    
    Menu
    00:00:00.000                : en:01. Opening / Meet the Yamadas
    00:11:27.478                : en:02. A Family Torn Apart
    00:22:40.150                : en:03. Domestic Goddess
    00:26:40.557                : en:04. Marriage Yamada Style
    00:32:42.752                : en:05. Father-Son Bonding
    00:36:32.023                : en:06. Patriarchal Supremacy Restored
    00:38:42.737                : en:07. Father As Role Model
    00:41:21.020                : en:08. Yamada Family Chronicles
    00:44:34.630                : en:09. Dynamic Duo
    00:46:25.073                : en:10. The Iron Chef
    00:48:27.821                : en:11. Ginger Morning
    00:52:19.970                : en:12. Regret
    00:53:09.769                : en:13. Beauty Is Fleeting, Life Is Long
    00:56:32.472                : en:14. Age Comes Before Wisdom
    01:00:38.426                : en:15. Ah, Youth
    01:06:50.715                : en:16. More Yamada Family Chronicles
    01:10:04.783                : en:17. Going My Way
    01:12:09.283                : en:18. Honesty Is The Best Policy
    01:25:47.141                : en:19. Section Chief Yamada
    01:35:10.704                : en:20. "Que Sera, Sera" / Ending



    Geschützter Bereich - Bedanke dich beim Poster, um den Bereich sehen zu können
    Hier erfährst Du wie Du Dich bedanken kannst oder werde jetzt Premium Mitglied ab einer Spende von 5€ und erhalte sofortigen Zugriff auf den Downloadbereich!

  2. 9 Benutzer sagen Danke:

    chopper23 (14. March 2016),Conopas (15. March 2016),DonCarlos (10. April 2016),Frag0042 (17. March 2016),McFly4711 (6. August 2016),midnighter (2. June 2016),Neyzu (19. March 2016),Runata (4. May 2016),UndeadBan (31. July 2016)

Lesezeichen

Berechtigungen

  • Neue Themen erstellen: Nein
  • Themen beantworten: Nein
  • Anhänge hochladen: Nein
  • Beiträge bearbeiten: Nein
  •  

1 2 3 4 5 6 7 8 9 10 11 12 13 14 15 16 17 18 19 20 21 22 23 24 25 26 27 28 29 30 31 32 33 34 35 36 37 38 39 40 41 42 43 44 45 46 47 48 49 50 51 52 53 54 55 56 57 58 59 60 61 62 63 64 65 66 67 68 69 70 71 72 73 74 75 76 77 78 79 80 81 82 83 84 85 86 87 88 89 90 91 92 93 94 95 96 97 98 99 100 101 102 103 104 105 106 107 108 109 110 111 112 113 114 115 116 117 118 119 120 121 122 123 124 125 126 127 128 129 130 131 132 133 134 135 136 137 138 139 140 141 142 143 144 145 146 147 148 149 150 151 152 153 154 155 156 157 158