Ergebnis 1 bis 1 von 1

Thema: Memories (1995) [Ger-Jap-Dub][FLAC][TrueHD][Ger-Sub][1080p][BluRay][x264/AVC]-SantaKlaus

Dieser Thread wurde noch nicht bewertet. Bewerte ihn doch, wenn er dir gefällt!
  1. #1
    Kleiner Experte Avatar von SantaKlaus
    Registriert seit
    Feb 2014
    Beiträge
    103
    Punkte
    5.867
    Errungenschaften:
    Hikikomori5000 Erfahrungspunkte

    Memories (1995) [Ger-Jap-Dub][FLAC][TrueHD][Ger-Sub][1080p][BluRay][x264/AVC]-SantaKlaus

    Memories
    Magnetic Rose, Stink Bomb, Cannon Fodder
    メモリーズ






    Kurzbeschreibung:

    MEMORIES - Vom gefeierten Meister des Animes, Katsuhiro Otomo (Akira, Roujin Z, Robotic Angel), besteht aus den drei fesselnden Geschichten, wobei jede für sich einen eigenen, unverwechselbaren Stil zeigt.

    "Magnetic Rose" unter der Regie von Koji Morimato (Animatrix), basierend auf dem Kurz-Manga von Otomo, zeigt die Abenteuer zweier Weltraumreisender, die Notsignalen folgend, in eine mystisch-wunderbare Welt eintauchen, die von den Gedanken einer Frau erschaffen wurde.

    In "Stink Bomb" - Regie Tensai Okamura (Wolf´s Rain) - transformiert sich ein junger Chemiker aus Versehen in eine nicht zu stoppende biologische Waffe, die direkten Kurs auf Tokyo einprogrammiert hat.

    "Cannon Fodder" schließlich, unter der Regie von Otomo selbst, stellt einen Tag im Leben einer Stadt dar, deren einziges Ziel ist, unaufhörlich Kanonen auf unbekannte Feinde abzufeuern.


    Format: 16:9
    Auflösung: 1080p
    Source: Blu-ray
    Codec: x264
    Settings: --preset veryslow --tune film --crf 16.0 --ref 4
    Info: Das Bild der Blu-ray wurde gecropped und mit Spline64Resize resized.
    Größe: 26.4 GB
    Hoster: Share-Online
    Ton:
    Deutsch FLAC 2.0 (AC3 von dt DVD lossless slowdown)
    Japanisch TrueHD 5.1 (von jp BD)
    Japanisch FLAC 2.0 (von jp BD PCM)

    MediaInfo
    Spoiler
    Code:
    General
    Unique ID                   : 249831348186840774594717577573854123431 (0xBBF3C477BB6BB11EA055E887BA2495A7)
    Complete name               : Memories (1995) [x264].mkv
    Format                      : Matroska
    Format version              : Version 4 / Version 2
    File size                   : 26.4 GiB
    Duration                    : 1h 53mn
    Overall bit rate mode       : Variable
    Overall bit rate            : 33.2 Mbps
    Encoded date                : UTC 2016-02-20 16:05:31
    Writing application         : mkvmerge v8.6.1 ('Flying') 64bit
    Writing library             : libebml v1.3.3 + libmatroska v1.4.4
    
    Video
    ID                          : 1
    Format                      : AVC
    Format/Info                 : Advanced Video Codec
    Format profile              : [email protected]
    Format settings, CABAC      : Yes
    Format settings, ReFrames   : 4 frames
    Codec ID                    : V_MPEG4/ISO/AVC
    Duration                    : 1h 53mn
    Bit rate                    : 23.6 Mbps
    Width                       : 1 920 pixels
    Height                      : 1 060 pixels
    Display aspect ratio        : 16:9
    Frame rate mode             : Constant
    Frame rate                  : 23.976 (24000/1001) fps
    Color space                 : YUV
    Chroma subsampling          : 4:2:0
    Bit depth                   : 8 bits
    Scan type                   : Progressive
    Bits/(Pixel*Frame)          : 0.484
    Stream size                 : 18.8 GiB (71%)
    Writing library             : x264 core 148 r2638 7599210
    Encoding settings           : cabac=1 / ref=4 / deblock=1:-1:-1 / analyse=0x3:0x133 / me=umh / subme=10 / psy=1 / psy_rd=1.00:0.15 / mixed_ref=1 / me_range=24 / chroma_me=1 / trellis=2 / 8x8dct=1 / cqm=0 / deadzone=21,11 / fast_pskip=1 / chroma_qp_offset=-3 / threads=6 / lookahead_threads=1 / sliced_threads=0 / nr=0 / decimate=1 / interlaced=0 / bluray_compat=0 / constrained_intra=0 / bframes=8 / b_pyramid=2 / b_adapt=2 / b_bias=0 / direct=3 / weightb=1 / open_gop=0 / weightp=2 / keyint=240 / keyint_min=23 / scenecut=40 / intra_refresh=0 / rc_lookahead=60 / rc=crf / mbtree=1 / crf=16.0 / qcomp=0.60 / qpmin=0 / qpmax=69 / qpstep=4 / ip_ratio=1.40 / aq=1:1.00
    Language                    : Japanese
    Default                     : Yes
    Forced                      : No
    
    Audio #1
    ID                          : 2
    Format                      : FLAC
    Format/Info                 : Free Lossless Audio Codec
    Codec ID                    : A_FLAC
    Duration                    : 1h 53mn
    Bit rate mode               : Variable
    Bit rate                    : 3 565 Kbps
    Channel(s)                  : 6 channels
    Channel positions           : Front: L C R, Side: L R, LFE
    Sampling rate               : 48.0 KHz
    Frame rate                  : 41.667 fps (1152 spf)
    Bit depth                   : 24 bits
    Delay relative to video     : 4ms
    Stream size                 : 2.83 GiB (11%)
    Writing library             : libFLAC 1.0.25 (UTC 2007-09-17)
    Language                    : German
    Default                     : Yes
    Forced                      : No
    
    Audio #2
    ID                          : 3
    Format                      : TrueHD
    Codec ID                    : A_TRUEHD
    Duration                    : 1h 53mn
    Bit rate mode               : Variable
    Bit rate                    : 5 264 Kbps
    Maximum bit rate            : 6 846 Kbps
    Channel(s)                  : 6 channels
    Channel positions           : Front: L C R, Side: L R, LFE
    Sampling rate               : 96.0 KHz
    Frame rate                  : 2 400.000 fps (40 spf)
    Compression mode            : Lossless
    Delay relative to video     : 8ms
    Stream size                 : 4.18 GiB (16%)
    Language                    : Japanese
    Default                     : No
    Forced                      : No
    
    Audio #3
    ID                          : 4
    Format                      : FLAC
    Format/Info                 : Free Lossless Audio Codec
    Codec ID                    : A_FLAC
    Duration                    : 1h 53mn
    Bit rate mode               : Variable
    Bit rate                    : 679 Kbps
    Channel(s)                  : 2 channels
    Channel positions           : Front: L R
    Sampling rate               : 48.0 KHz
    Frame rate                  : 11.719 fps (4096 spf)
    Bit depth                   : 16 bits
    Stream size                 : 552 MiB (2%)
    Writing library             : libFLAC 1.2.1 (UTC 2007-09-17)
    Language                    : Japanese
    Default                     : No
    Forced                      : No
    
    Text
    ID                          : 5
    Format                      : UTF-8
    Codec ID                    : S_TEXT/UTF8
    Codec ID/Info               : UTF-8 Plain Text
    Duration                    : 1h 52mn
    Bit rate                    : 42 bps
    Count of elements           : 972
    Stream size                 : 34.7 KiB (0%)
    Language                    : German
    Default                     : No
    Forced                      : No
    
    Menu
    00:00:00.000                : en:Memories - Intro
    00:00:40.707                : en:Episode 1: Magnetic Rose - Chapter 1
    00:04:43.783                : en:Episode 1: Magnetic Rose - Chapter 2
    00:06:24.967                : en:Episode 1: Magnetic Rose - Chapter 3
    00:07:36.956                : en:Episode 1: Magnetic Rose - Chapter 4
    00:09:33.364                : en:Episode 1: Magnetic Rose - Chapter 5
    00:10:42.975                : en:Episode 1: Magnetic Rose - Chapter 6
    00:12:15.442                : en:Episode 1: Magnetic Rose - Chapter 7
    00:13:41.862                : en:Episode 1: Magnetic Rose - Chapter 8
    00:15:01.275                : en:Episode 1: Magnetic Rose - Chapter 9
    00:15:33.182                : en:Episode 1: Magnetic Rose - Chapter 10
    00:17:17.828                : en:Episode 1: Magnetic Rose - Chapter 11
    00:18:20.891                : en:Episode 1: Magnetic Rose - Chapter 12
    00:19:19.700                : en:Episode 1: Magnetic Rose - Chapter 13
    00:21:24.783                : en:Episode 1: Magnetic Rose - Chapter 14
    00:22:29.389                : en:Episode 1: Magnetic Rose - Chapter 15
    00:24:55.827                : en:Episode 1: Magnetic Rose - Chapter 16
    00:26:43.101                : en:Episode 1: Magnetic Rose - Chapter 17
    00:27:32.984                : en:Episode 1: Magnetic Rose - Chapter 18
    00:29:10.456                : en:Episode 1: Magnetic Rose - Chapter 19
    00:30:06.262                : en:Episode 1: Magnetic Rose - Chapter 20
    00:32:30.239                : en:Episode 1: Magnetic Rose - Chapter 21
    00:33:58.995                : en:Episode 1: Magnetic Rose - Chapter 22
    00:35:03.309                : en:Episode 1: Magnetic Rose - Chapter 23
    00:37:32.792                : en:Episode 1: Magnetic Rose - Chapter 24
    00:38:55.249                : en:Episode 1: Magnetic Rose - Chapter 25
    00:40:08.530                : en:Episode 1: Magnetic Rose - Chapter 26
    00:41:00.457                : en:Episode 1: Magnetic Rose - Chapter 27
    00:42:30.380                : en:Episode 1: Magnetic Rose - Chapter 28
    00:44:21.158                : en:Episode 2: Stink Bomb - Chapter 1
    00:46:32.289                : en:Episode 2: Stink Bomb - Chapter 2
    00:47:48.740                : en:Episode 2: Stink Bomb - Chapter 3
    00:49:28.340                : en:Episode 2: Stink Bomb - Chapter 4
    00:51:04.603                : en:Episode 2: Stink Bomb - Chapter 5
    00:53:15.108                : en:Episode 2: Stink Bomb - Chapter 6
    00:54:18.630                : en:Episode 2: Stink Bomb - Chapter 7
    00:56:48.238                : en:Episode 2: Stink Bomb - Chapter 8
    00:58:40.725                : en:Episode 2: Stink Bomb - Chapter 9
    01:00:00.888                : en:Episode 2: Stink Bomb - Chapter 10
    01:02:24.782                : en:Episode 2: Stink Bomb - Chapter 11
    01:04:36.247                : en:Episode 2: Stink Bomb - Chapter 12
    01:07:12.194                : en:Episode 2: Stink Bomb - Chapter 13
    01:07:41.849                : en:Episode 2: Stink Bomb - Chapter 14
    01:09:24.159                : en:Episode 2: Stink Bomb - Chapter 15
    01:10:01.989                : en:Episode 2: Stink Bomb - Chapter 16
    01:10:38.817                : en:Episode 2: Stink Bomb - Chapter 17
    01:11:58.730                : en:Episode 2: Stink Bomb - Chapter 18
    01:12:49.198                : en:Episode 2: Stink Bomb - Chapter 19
    01:13:04.963                : en:Episode 2: Stink Bomb - Chapter 20
    01:13:54.596                : en:Episode 2: Stink Bomb - Chapter 21
    01:14:38.432                : en:Episode 2: Stink Bomb - Chapter 22
    01:16:29.751                : en:Episode 2: Stink Bomb - Chapter 23
    01:18:04.221                : en:Episode 2: Stink Bomb - Chapter 24
    01:19:14.833                : en:Episode 2: Stink Bomb - Chapter 25
    01:21:14.577                : en:Episode 2: Stink Bomb - Chapter 26
    01:22:50.965                : en:Episode 2: Stink Bomb - Chapter 27
    01:23:39.681                : en:Episode 2: Stink Bomb - Chapter 28
    01:24:36.613                : en:Episode 3: Cannon Fodder - Chapter 1
    01:25:50.520                : en:Episode 3: Cannon Fodder - Chapter 2
    01:27:37.627                : en:Episode 3: Cannon Fodder - Chapter 3
    01:29:02.211                : en:Episode 3: Cannon Fodder - Chapter 4
    01:29:58.768                : en:Episode 3: Cannon Fodder - Chapter 5
    01:30:40.810                : en:Episode 3: Cannon Fodder - Chapter 6
    01:35:14.583                : en:Episode 3: Cannon Fodder - Chapter 7
    01:37:57.079                : en:Episode 3: Cannon Fodder - Chapter 8
    01:38:36.785                : en:Episode 3: Cannon Fodder - Chapter 9
    01:40:26.395                : en:Episode 3: Cannon Fodder - Chapter 10
    01:42:25.847                : en:Episode 3: Cannon Fodder - Chapter 11
    01:44:26.968                : en:Episode 3: Cannon Fodder - Chapter 12
    01:46:53.615                : en:Memories - Outro / Credits
    01:53:27.592                : en:Memories - Credits #2



    Geschützter Bereich - Bedanke dich beim Poster, um den Bereich sehen zu können
    Hier erfährst Du wie Du Dich bedanken kannst oder werde jetzt Premium Mitglied ab einer Spende von 5€ und erhalte sofortigen Zugriff auf den Downloadbereich!

  2. 6 Benutzer sagen Danke:

    Benebastler (22. May 2016),bonsai (18. May 2016),Gorbatschow (8. October 2016),midnighter (27. March 2016),Terraner (6. July 2016),Ulfhednir (5. March 2016)

Lesezeichen

Berechtigungen

  • Neue Themen erstellen: Nein
  • Themen beantworten: Nein
  • Anhänge hochladen: Nein
  • Beiträge bearbeiten: Nein
  •  

1 2 3 4 5 6 7 8 9 10 11 12 13 14 15 16 17 18 19 20 21 22 23 24 25 26 27 28 29 30 31 32 33 34 35 36 37 38 39 40 41 42 43 44 45 46 47 48 49 50 51 52 53 54 55 56 57 58 59 60 61 62 63 64 65 66 67 68 69 70 71 72 73 74 75 76 77 78 79 80 81 82 83 84 85 86 87 88 89 90 91 92 93 94 95 96 97 98 99 100 101 102 103 104 105 106 107 108 109 110 111 112 113 114 115 116 117 118 119 120 121 122 123 124 125 126 127 128 129 130 131 132 133 134 135 136 137 138 139 140 141 142 143 144 145 146 147 148 149 150 151 152 153 154 155 156 157 158