Ergebnis 1 bis 1 von 1

Thema: Omoide no Marnie [Ger-Jap-Dub][Ger-Sub][720p/1080p][BluRay]-STARS

Dieser Thread wurde noch nicht bewertet. Bewerte ihn doch, wenn er dir gefällt!
  1. #1
    United we Stand Avatar von 00Ryuji00
    Registriert seit
    Oct 2012
    Beiträge
    3.896
    Punkte
    99.519
    Errungenschaften:
    TomodachisGang LeaderHikikomoriTagger Amateur50000 Erfahrungspunkte

    Omoide no Marnie [Ger-Jap-Dub][Ger-Sub][720p/1080p][BluRay]-STARS


    Omoide no Marnie
    When Marnie Was There
    Erinnerungen an Marnie






    Kurzbeschreibung:
    Zitat Zitat von AniSearch.com
    Eine atmosphärische Geistergeschichte, die die Wahrheit über Freundschaft, Familie und Einsamkeit erzählt. Anna lebt bei ihren Pflegeeltern, sie ist ein Außenseiter ohne Freunde, ständig außerhalb des Geschehens. Eines Tages wird sie zu einem älteren Paar, Herr und Frau Pegg, nach Norfolk geschickt. Sie bleibt bei ihnen und verbringt ihren Tag meist mit wildem Umherlaufen in den Sanddünen und am Wasser. Dort findet sie ein Haus, das Haus der Marshs, was ihre Gefühle erkennt und bald darauf trifft sie ein seltsames kleines Mädchen namens Marnie, die Annas erste Freundin wird. Dann, eines Tages, verschwindet Marnie wieder.

    Eine neue Familie, die Lindsays, ziehen in das Haus der Marshs. Nachdem Anna so viel von Marnie über Freundschaft gelernt hatte, beginnt zwischen ihr und den Lindsays eine feste Freundschaft. Dabei erfährt sie einige merkwürdige Dinge über Marnie, die nicht ganz das war, was sie zu sein schien...


    Spieldauer: 103min
    Genre: Drama
    Nebengenres: Alltagsleben, Drama
    Jahr: 2014
    Sprache: Deutsch, Japanisch
    Untertitel: Deutsch
    Größe pro Folge: ~3.29 GiB ~4.46 GiB
    Episodenanzahl: 1 /1
    Format: MKV
    Auflösung: 688p (1.85:1), 1040p (1.85:1)
    Videocodec: x264 (AVC)
    Audiocodec: DTS
    Releasegruppe: STARS
    Hoster: Share-Online, Uploaded


    MediaInfo
    720p
    Code:
    
    Format                                   : Matroska
    Format version                           : Version 4 / Version 2
    File size                                : 3.29 GiB
    Duration                                 : 1h 43mn
    Overall bit rate                         : 4 565 Kbps
    Movie name                               : ERINNERUNGEN AN MARNIE - 720P - STARS
    Encoded date                             : UTC 2016-03-12 04:01:13
    Writing application                      : mkvmerge v6.1.0 ('Old Devil') built on Mar  2 2013 14:32:37
    Writing library                          : libebml v1.3.0 + libmatroska v1.4.0
    
    Video
    ID                                       : 1
    Format                                   : AVC
    Format/Info                              : Advanced Video Codec
    Format profile                           : [email protected]
    Format settings, CABAC                   : Yes
    Format settings, ReFrames                : 5 frames
    Codec ID                                 : V_MPEG4/ISO/AVC
    Duration                                 : 1h 43mn
    Bit rate                                 : 1 456 Kbps
    Width                                    : 1 280 pixels
    Height                                   : 688 pixels
    Display aspect ratio                     : 1.85:1
    Frame rate mode                          : Constant
    Frame rate                               : 24.000 fps
    Color space                              : YUV
    Chroma subsampling                       : 4:2:0
    Bit depth                                : 8 bits
    Scan type                                : Progressive
    Bits/(Pixel*Frame)                       : 0.069
    Stream size                              : 1.05 GiB (32%)
    Title                                    : ERINNERUNGEN AN MARNIE - 720P - STARS
    Writing library                          : x264 core 148 r2665 a01e339
    Encoding settings                        : cabac=1 / ref=5 / deblock=1:0:0 / analyse=0x3:0x133 / me=umh / subme=7 / psy=1 / psy_rd=1.00:0.00 / mixed_ref=1 / me_range=16 / chroma_me=1 / trellis=1 / 8x8dct=1 / cqm=0 / deadzone=21,11 / fast_pskip=0 / chroma_qp_offset=-2 / threads=12 / lookahead_threads=2 / sliced_threads=0 / nr=0 / decimate=1 / interlaced=0 / bluray_compat=0 / constrained_intra=0 / bframes=3 / b_pyramid=2 / b_adapt=1 / b_bias=0 / direct=1 / weightb=1 / open_gop=0 / weightp=1 / keyint=250 / keyint_min=24 / scenecut=40 / intra_refresh=0 / rc_lookahead=40 / rc=crf / mbtree=1 / crf=20.0 / qcomp=0.60 / qpmin=0 / qpmax=69 / qpstep=4 / ip_ratio=1.40 / aq=1:1.00
    Default                                  : Yes
    Forced                                   : Yes
    
    Audio #1
    ID                                       : 2
    Format                                   : DTS
    Format/Info                              : Digital Theater Systems
    Mode                                     : 16
    Format settings, Endianness              : Big
    Codec ID                                 : A_DTS
    Duration                                 : 1h 43mn
    Bit rate mode                            : Constant
    Bit rate                                 : 1 509 Kbps
    Channel(s)                               : 5 channels
    Channel positions                        : Front: L C R, Side: L R
    Sampling rate                            : 48.0 KHz
    Bit depth                                : 24 bits
    Compression mode                         : Lossy
    Stream size                              : 1.09 GiB (33%)
    Title                                    : GER - DTS
    Language                                 : German
    Default                                  : Yes
    Forced                                   : Yes
    
    Audio #2
    ID                                       : 3
    Format                                   : DTS
    Format/Info                              : Digital Theater Systems
    Mode                                     : 16
    Format settings, Endianness              : Big
    Codec ID                                 : A_DTS
    Duration                                 : 1h 43mn
    Bit rate mode                            : Constant
    Bit rate                                 : 1 509 Kbps
    Channel(s)                               : 5 channels
    Channel positions                        : Front: L C R, Side: L R
    Sampling rate                            : 48.0 KHz
    Bit depth                                : 24 bits
    Compression mode                         : Lossy
    Stream size                              : 1.09 GiB (33%)
    Title                                    : JPN - DTS
    Language                                 : Japanese
    Default                                  : No
    Forced                                   : No
    
    Text #1
    ID                                       : 4
    Format                                   : UTF-8
    Codec ID                                 : S_TEXT/UTF8
    Codec ID/Info                            : UTF-8 Plain Text
    Title                                    : GER - FORCED
    Language                                 : German
    Default                                  : Yes
    Forced                                   : Yes
    
    Text #2
    ID                                       : 5
    Format                                   : UTF-8
    Codec ID                                 : S_TEXT/UTF8
    Codec ID/Info                            : UTF-8 Plain Text
    Title                                    : GER - SUBS
    Language                                 : German
    Default                                  : No
    Forced                                   : No
    
    Menu
    00:00:00.000                             : en:00:00:00.000
    00:11:01.875                             : en:00:11:01.875
    00:20:44.958                             : en:00:20:44.958
    00:29:16.375                             : en:00:29:16.375
    00:36:57.125                             : en:00:36:57.125
    00:42:47.625                             : en:00:42:47.625
    00:51:24.792                             : en:00:51:24.792
    01:03:24.292                             : en:01:03:24.292
    01:13:24.625                             : en:01:13:24.625
    01:24:25.708                             : en:01:24:25.708
    01:33:32.083                             : en:01:33:32.083
    01:39:28.042                             : en:01:39:28.042
    
    


    1080p
    Code:
    
    Format                                   : Matroska
    Format version                           : Version 4 / Version 2
    File size                                : 4.46 GiB
    Duration                                 : 1h 43mn
    Overall bit rate                         : 6 185 Kbps
    Movie name                               : ERINNERUNGEN AN MARNIE - 1080P - STARS
    Encoded date                             : UTC 2016-03-12 04:08:53
    Writing application                      : mkvmerge v6.1.0 ('Old Devil') built on Mar  2 2013 14:32:37
    Writing library                          : libebml v1.3.0 + libmatroska v1.4.0
    
    Video
    ID                                       : 1
    Format                                   : AVC
    Format/Info                              : Advanced Video Codec
    Format profile                           : [email protected]
    Format settings, CABAC                   : Yes
    Format settings, ReFrames                : 4 frames
    Codec ID                                 : V_MPEG4/ISO/AVC
    Duration                                 : 1h 43mn
    Bit rate                                 : 3 044 Kbps
    Width                                    : 1 920 pixels
    Height                                   : 1 040 pixels
    Display aspect ratio                     : 1.85:1
    Frame rate mode                          : Constant
    Frame rate                               : 24.000 fps
    Color space                              : YUV
    Chroma subsampling                       : 4:2:0
    Bit depth                                : 8 bits
    Scan type                                : Progressive
    Bits/(Pixel*Frame)                       : 0.064
    Stream size                              : 2.20 GiB (49%)
    Title                                    : ERINNERUNGEN AN MARNIE - 1080P - STARS
    Writing library                          : x264 core 148 r2665 a01e339
    Encoding settings                        : cabac=1 / ref=4 / deblock=1:0:0 / analyse=0x3:0x133 / me=umh / subme=7 / psy=1 / psy_rd=1.00:0.00 / mixed_ref=1 / me_range=16 / chroma_me=1 / trellis=1 / 8x8dct=1 / cqm=0 / deadzone=21,11 / fast_pskip=0 / chroma_qp_offset=-2 / threads=12 / lookahead_threads=2 / sliced_threads=0 / nr=0 / decimate=1 / interlaced=0 / bluray_compat=0 / constrained_intra=0 / bframes=3 / b_pyramid=2 / b_adapt=1 / b_bias=0 / direct=1 / weightb=1 / open_gop=0 / weightp=1 / keyint=250 / keyint_min=24 / scenecut=40 / intra_refresh=0 / rc_lookahead=40 / rc=crf / mbtree=1 / crf=20.0 / qcomp=0.60 / qpmin=0 / qpmax=69 / qpstep=4 / ip_ratio=1.40 / aq=1:1.00
    Default                                  : Yes
    Forced                                   : Yes
    
    Audio #1
    ID                                       : 2
    Format                                   : DTS
    Format/Info                              : Digital Theater Systems
    Mode                                     : 16
    Format settings, Endianness              : Big
    Codec ID                                 : A_DTS
    Duration                                 : 1h 43mn
    Bit rate mode                            : Constant
    Bit rate                                 : 1 509 Kbps
    Channel(s)                               : 5 channels
    Channel positions                        : Front: L C R, Side: L R
    Sampling rate                            : 48.0 KHz
    Bit depth                                : 24 bits
    Compression mode                         : Lossy
    Stream size                              : 1.09 GiB (24%)
    Title                                    : GER - DTS
    Language                                 : German
    Default                                  : Yes
    Forced                                   : Yes
    
    Audio #2
    ID                                       : 3
    Format                                   : DTS
    Format/Info                              : Digital Theater Systems
    Mode                                     : 16
    Format settings, Endianness              : Big
    Codec ID                                 : A_DTS
    Duration                                 : 1h 43mn
    Bit rate mode                            : Constant
    Bit rate                                 : 1 509 Kbps
    Channel(s)                               : 5 channels
    Channel positions                        : Front: L C R, Side: L R
    Sampling rate                            : 48.0 KHz
    Bit depth                                : 24 bits
    Compression mode                         : Lossy
    Stream size                              : 1.09 GiB (24%)
    Title                                    : JPN - DTS
    Language                                 : Japanese
    Default                                  : No
    Forced                                   : No
    
    Text #1
    ID                                       : 4
    Format                                   : UTF-8
    Codec ID                                 : S_TEXT/UTF8
    Codec ID/Info                            : UTF-8 Plain Text
    Title                                    : GER - FORCED
    Language                                 : German
    Default                                  : Yes
    Forced                                   : Yes
    
    Text #2
    ID                                       : 5
    Format                                   : UTF-8
    Codec ID                                 : S_TEXT/UTF8
    Codec ID/Info                            : UTF-8 Plain Text
    Title                                    : GER - SUBS
    Language                                 : German
    Default                                  : No
    Forced                                   : No
    
    Menu
    00:00:00.000                             : en:00:00:00.000
    00:11:01.875                             : en:00:11:01.875
    00:20:44.958                             : en:00:20:44.958
    00:29:16.375                             : en:00:29:16.375
    00:36:57.125                             : en:00:36:57.125
    00:42:47.625                             : en:00:42:47.625
    00:51:24.792                             : en:00:51:24.792
    01:03:24.292                             : en:01:03:24.292
    01:13:24.625                             : en:01:13:24.625
    01:24:25.708                             : en:01:24:25.708
    01:33:32.083                             : en:01:33:32.083
    01:39:28.042                             : en:01:39:28.042
    
    






    Geschützter Bereich - Bedanke dich beim Poster, um den Bereich sehen zu können
    Hier erfährst Du wie Du Dich bedanken kannst oder werde jetzt Premium Mitglied ab einer Spende von 5€ und erhalte sofortigen Zugriff auf den Downloadbereich!

    [Links sind nur für registrierte und aktivierte Nutzer sichtbar. Klicke hier um dich zu registrieren.]
    !!!Alle Anliegen bezüglich Uploads werden nur mit direktem Threadlink zum Angebot bearbeitet!!!

    Re-Uploadanfragen nur per PN - Ihr könnt mir auch Listen schicken

    Re-Uploads erfolgen meist innerhalb 24h, kann aber auch bis zu 7 Tage dauern

    [Links sind nur für registrierte und aktivierte Nutzer sichtbar. Klicke hier um dich zu registrieren.] | [Links sind nur für registrierte und aktivierte Nutzer sichtbar. Klicke hier um dich zu registrieren.] | >[Links sind nur für registrierte und aktivierte Nutzer sichtbar. Klicke hier um dich zu registrieren.]<
    [Links sind nur für registrierte und aktivierte Nutzer sichtbar. Klicke hier um dich zu registrieren.]

  2. 37 Benutzer sagen Danke:

    andyb90 (5. May 2016),anime-fan (18. April 2016),BlackPhoenix (31. July 2016),Bullet91 (15. May 2016),chopper23 (6. April 2016),dragonking87 (30. July 2016),Frag0042 (9. April 2016),frankra (17. April 2016),galudo (12. October 2016),Gatti1983 (23. March 2016),herrwefer (12. May 2016),hundekuchen (23. March 2016),JoleenLovesMina (2. June 2016),midnighter (2. June 2016),moflippa (26. April 2016),Mr.Classic (19. March 2016),nabou (19. March 2016),NanaNo7 (18. June 2016),nemo (25. March 2016),Neyzu (19. March 2016),NUVAKWAHU (20. April 2016),old nick (2. April 2016),Pazu (17. April 2016),prinzvegeta (31. May 2016),Sait1991 (13. September 2016),Scorns (18. March 2016),skylier (10. June 2016),Smery (21. March 2016),stellar (19. March 2016),Tai1988 (21. March 2016),Tenma90 (22. April 2016),Teramex (27. March 2016),thanathan85 (3. April 2016),Vastolord (25. March 2016),yarouze (24. May 2016),zimbo201174 (19. March 2016),Zumay (16. August 2016)

Lesezeichen

Berechtigungen

  • Neue Themen erstellen: Nein
  • Themen beantworten: Nein
  • Anhänge hochladen: Nein
  • Beiträge bearbeiten: Nein
  •  

1 2 3 4 5 6 7 8 9 10 11 12 13 14 15 16 17 18 19 20 21 22 23 24 25 26 27 28 29 30 31 32 33 34 35 36 37 38 39 40 41 42 43 44 45 46 47 48 49 50 51 52 53 54 55 56 57 58 59 60 61 62 63 64 65 66 67 68 69 70 71 72 73 74 75 76 77 78 79 80 81 82 83 84 85 86 87 88 89 90 91 92 93 94 95 96 97 98 99 100 101 102 103 104 105 106 107 108 109 110 111 112 113 114 115 116 117 118 119 120 121 122 123 124 125 126 127 128 129 130 131 132 133 134 135 136 137 138 139 140 141 142 143 144 145 146 147 148 149 150 151 152 153 154 155 156 157 158