Ergebnis 1 bis 1 von 1

Thema: Paprika (2006) + Extras [Ger-Jap-Eng-Dub][AC3][TrueHD][Ger-Eng-Sub][1080p][Remux][Blu-ray]-SantaKlaus

Dieser Thread wurde noch nicht bewertet. Bewerte ihn doch, wenn er dir gefällt!
  1. #1
    Kleiner Experte Avatar von SantaKlaus
    Registriert seit
    Feb 2014
    Beiträge
    103
    Punkte
    5.867
    Errungenschaften:
    Hikikomori5000 Erfahrungspunkte

    Paprika (2006) + Extras [Ger-Jap-Eng-Dub][AC3][TrueHD][Ger-Eng-Sub][1080p][Remux][Blu-ray]-SantaKlaus

    Paprika
    パプリカ






    Kurzbeschreibung:
    In einer nahen Zukunft:
    Eine revolutionäre neue psychotherapeutische Behandlung, PT genannt, wurde erfunden. Durch ein Gerät namens "DC Mini" ist es in der Lage, als "Traumdetektiv" in die Träume der Menschen einzutreten und deren Unterbewusstsein zu erkunden. Doch bevor die Regierung die Verwendung einer solchen fortschrittlichen psychiatrischen Technologie bewilligen kann, wird einer der Prototypen gestohlen. Dieser Vorfall versetzt die ganze Forschungseinrichtung in Aufruhr. In den falschen Händen könnte der mögliche Missbrauch des Gerätes, das dem Benutzer erlaubt, die Persönlichkeit eines Menschen völlig auszulöschen, während er schläft, verheerend sein. Die berühmte Wissenschaftlerin Ritsuko Chiba betritt die Traumwelt mit ihrem Alter Ego - Codename "PAPRIKA" - um herauszufinden, wer hinter der Untergrabung der neuen Erfindung steckt.


    Format: 16:9
    Auflösung: 1920x1080
    Source: US & EU Blu-ray
    Codec: MPEG2
    Hoster: Share-Online
    Ton:
    Deutsch Dolby Digital 5.1 (EU BD)
    Japanisch TrueHD 5.1 (US BD)
    Englisch TrueHD 5.1 (US BD)

    Spoiler
    Code:
    Paprika (2006)/Paprika (2006).mkv
    Paprika (2006)/Behind The Scenes/A Conversation about the 'Dream'.mkv
    Paprika (2006)/Behind The Scenes/Storyboard Comparisons - 01 The Parade Scene - 01 Storyboard Comparisons.mkv
    Paprika (2006)/Behind The Scenes/Storyboard Comparisons - 01 The Parade Scene - 02 Original Drawings and Character Paintings.mkv
    Paprika (2006)/Behind The Scenes/Storyboard Comparisons - 01 The Parade Scene - 03 Original Drawings.mkv
    Paprika (2006)/Behind The Scenes/Storyboard Comparisons - 01 The Parade Scene - 04 Character Paintings.mkv
    Paprika (2006)/Behind The Scenes/Storyboard Comparisons - 02 The Ruins Scene - 01 Storyboard Comparisons.mkv
    Paprika (2006)/Behind The Scenes/Storyboard Comparisons - 02 The Ruins Scene - 02 Original Drawings and Character Paintings.mkv
    Paprika (2006)/Behind The Scenes/Storyboard Comparisons - 02 The Ruins Scene - 03 Original Drawings.mkv
    Paprika (2006)/Behind The Scenes/Storyboard Comparisons - 02 The Ruins Scene - 04 Character Paintings.mkv
    Paprika (2006)/Behind The Scenes/Storyboard Comparisons - 03 Skin Slitting Scene - 01 Storyboard Comparisons.mkv
    Paprika (2006)/Behind The Scenes/Storyboard Comparisons - 03 Skin Slitting Scene - 02 Original Drawings and Character Paintings.mkv
    Paprika (2006)/Behind The Scenes/Storyboard Comparisons - 03 Skin Slitting Scene - 03 Original Drawings.mkv
    Paprika (2006)/Behind The Scenes/Storyboard Comparisons - 03 Skin Slitting Scene - 04 Character Paintings.mkv
    Paprika (2006)/Behind The Scenes/The Art of Fantasy.mkv
    Paprika (2006)/Behind The Scenes/The Dream CG World.mkv
    Paprika (2006)/Behind The Scenes/The Making of Paprika.mkv
    Paprika (2006)/Scenes/BD Menu.mkv


    Spoiler
    Code:
    General
    Unique ID                   : 217750859877412969759796986901942618401 (0xA3D14A46F802F500B2B5E3F0F609C921)
    Complete name               : Paprika (2006).mkv
    Format                      : Matroska
    Format version              : Version 4 / Version 2
    File size                   : 17.1 GiB
    Duration                    : 1h 30mn
    Overall bit rate mode       : Variable
    Overall bit rate            : 27.0 Mbps
    Encoded date                : UTC 2016-03-15 23:58:27
    Writing application         : mkvmerge v8.9.0 ('Father Daughter') 64bit
    Writing library             : libebml v1.3.3 + libmatroska v1.4.4
    
    Video
    ID                          : 1
    Format                      : MPEG Video
    Format version              : Version 2
    Format profile              : [email protected]
    Format settings, BVOP       : Yes
    Format settings, Matrix     : Default
    Format settings, GOP        : M=3, N=15
    Codec ID                    : V_MPEG2
    Codec ID/Info               : MPEG 1 or 2 Video
    Duration                    : 1h 30mn
    Bit rate mode               : Variable
    Bit rate                    : 22.8 Mbps
    Maximum bit rate            : 33.0 Mbps
    Width                       : 1 840 pixels
    Original width              : 1 920 pixels
    Height                      : 992 pixels
    Original height             : 1 080 pixels
    Display aspect ratio        : 16:9
    Frame rate mode             : Constant
    Frame rate                  : 23.976 (24000/1001) fps
    Color space                 : YUV
    Chroma subsampling          : 4:2:0
    Bit depth                   : 8 bits
    Scan type                   : Progressive
    Compression mode            : Lossy
    Bits/(Pixel*Frame)          : 0.520
    Time code of first frame    : 01:00:00:00
    Time code source            : Group of pictures header
    GOP, Open/Closed            : Open
    GOP, Open/Closed of first f : Closed
    Stream size                 : 14.4 GiB (84%)
    Language                    : Japanese
    Default                     : Yes
    Forced                      : No
    
    Audio #1
    ID                          : 2
    Format                      : AC-3
    Format/Info                 : Audio Coding 3
    Mode extension              : CM (complete main)
    Format settings, Endianness : Big
    Codec ID                    : A_AC3
    Duration                    : 1h 30mn
    Bit rate mode               : Constant
    Bit rate                    : 640 Kbps
    Channel(s)                  : 6 channels
    Channel positions           : Front: L C R, Side: L R, LFE
    Sampling rate               : 48.0 KHz
    Frame rate                  : 31.250 fps (1536 spf)
    Compression mode            : Lossy
    Stream size                 : 414 MiB (2%)
    Language                    : German
    Default                     : Yes
    Forced                      : No
    
    Audio #2
    ID                          : 3
    Format                      : TrueHD
    Codec ID                    : A_TRUEHD
    Duration                    : 1h 30mn
    Bit rate mode               : Variable
    Bit rate                    : 1 577 Kbps
    Maximum bit rate            : 3 069 Kbps
    Channel(s)                  : 6 channels
    Channel positions           : Front: L C R, Side: L R, LFE
    Sampling rate               : 48.0 KHz
    Frame rate                  : 1 200.000 fps (40 spf)
    Compression mode            : Lossless
    Stream size                 : 1 021 MiB (6%)
    Language                    : Japanese
    Default                     : No
    Forced                      : No
    
    Audio #3
    ID                          : 4
    Format                      : TrueHD
    Codec ID                    : A_TRUEHD
    Duration                    : 1h 30mn
    Bit rate mode               : Variable
    Bit rate                    : 1 641 Kbps
    Maximum bit rate            : 3 168 Kbps
    Channel(s)                  : 6 channels
    Channel positions           : Front: L C R, Side: L R, LFE
    Sampling rate               : 48.0 KHz
    Frame rate                  : 1 200.000 fps (40 spf)
    Compression mode            : Lossless
    Stream size                 : 1.04 GiB (6%)
    Language                    : English
    Default                     : No
    Forced                      : No
    
    Audio #4
    ID                          : 5
    Format                      : AC-3
    Format/Info                 : Audio Coding 3
    Mode extension              : CM (complete main)
    Format settings, Endianness : Big
    Codec ID                    : A_AC3
    Duration                    : 1h 30mn
    Bit rate mode               : Constant
    Bit rate                    : 192 Kbps
    Channel(s)                  : 2 channels
    Channel positions           : Front: L R
    Sampling rate               : 48.0 KHz
    Frame rate                  : 31.250 fps (1536 spf)
    Compression mode            : Lossy
    Stream size                 : 124 MiB (1%)
    Title                       : Filmmakers' Commentary with Director Satoshi Kon, Composer Susumu Hirasawa and Associate Producer Taro Morishima
    Language                    : Japanese
    Default                     : No
    Forced                      : No
    
    Text #1
    ID                          : 6
    Format                      : PGS
    Muxing mode                 : zlib
    Codec ID                    : S_HDMV/PGS
    Codec ID/Info               : Picture based subtitle format used on BDs/HD-DVDs
    Duration                    : 1h 16mn
    Bit rate                    : 118 bps
    Count of elements           : 20
    Stream size                 : 66.4 KiB (0%)
    Language                    : German
    Default                     : Yes
    Forced                      : Yes
    
    Text #2
    ID                          : 7
    Format                      : PGS
    Muxing mode                 : zlib
    Codec ID                    : S_HDMV/PGS
    Codec ID/Info               : Picture based subtitle format used on BDs/HD-DVDs
    Duration                    : 1h 24mn
    Bit rate                    : 14.6 Kbps
    Count of elements           : 1630
    Stream size                 : 8.86 MiB (0%)
    Language                    : German
    Default                     : No
    Forced                      : No
    
    Text #3
    ID                          : 8
    Format                      : PGS
    Muxing mode                 : zlib
    Codec ID                    : S_HDMV/PGS
    Codec ID/Info               : Picture based subtitle format used on BDs/HD-DVDs
    Duration                    : 1h 30mn
    Bit rate                    : 21.7 Kbps
    Count of elements           : 2908
    Stream size                 : 14.0 MiB (0%)
    Title                       : Filmmakers' Commentary with Director Satoshi Kon, Composer Susumu Hirasawa and Associate Producer Taro Morishima
    Language                    : German
    Default                     : No
    Forced                      : No
    
    Text #4
    ID                          : 9
    Format                      : PGS
    Muxing mode                 : zlib
    Codec ID                    : S_HDMV/PGS
    Codec ID/Info               : Picture based subtitle format used on BDs/HD-DVDs
    Duration                    : 1h 16mn
    Bit rate                    : 50 bps
    Count of elements           : 10
    Stream size                 : 28.3 KiB (0%)
    Language                    : English
    Default                     : No
    Forced                      : Yes
    
    Text #5
    ID                          : 10
    Format                      : PGS
    Muxing mode                 : zlib
    Codec ID                    : S_HDMV/PGS
    Codec ID/Info               : Picture based subtitle format used on BDs/HD-DVDs
    Duration                    : 1h 24mn
    Bit rate                    : 10.9 Kbps
    Count of elements           : 1618
    Stream size                 : 6.63 MiB (0%)
    Language                    : English
    Default                     : No
    Forced                      : No
    
    Text #6
    ID                          : 11
    Format                      : PGS
    Muxing mode                 : zlib
    Codec ID                    : S_HDMV/PGS
    Codec ID/Info               : Picture based subtitle format used on BDs/HD-DVDs
    Duration                    : 1h 25mn
    Bit rate                    : 11.5 Kbps
    Count of elements           : 2012
    Stream size                 : 6.98 MiB (0%)
    Title                       : Hearing Impaired
    Language                    : English
    Default                     : No
    Forced                      : No
    
    Text #7
    ID                          : 12
    Format                      : PGS
    Muxing mode                 : zlib
    Codec ID                    : S_HDMV/PGS
    Codec ID/Info               : Picture based subtitle format used on BDs/HD-DVDs
    Duration                    : 1h 30mn
    Bit rate                    : 22.5 Kbps
    Count of elements           : 2864
    Stream size                 : 14.5 MiB (0%)
    Title                       : Filmmakers' Commentary with Director Satoshi Kon, Composer Susumu Hirasawa and Associate Producer Taro Morishima
    Language                    : English
    Default                     : No
    Forced                      : No
    
    Menu
    00:00:00.000                : en:Chapter 01
    00:07:57.477                : en:Chapter 02
    00:10:15.489                : en:Chapter 03
    00:15:47.738                : en:Chapter 04
    00:20:15.255                : en:Chapter 05
    00:28:05.725                : en:Chapter 06
    00:32:58.810                : en:Chapter 07
    00:38:40.109                : en:Chapter 08
    00:45:57.671                : en:Chapter 09
    00:52:46.204                : en:Chapter 10
    00:58:58.201                : en:Chapter 11
    01:03:04.071                : en:Chapter 12
    01:08:11.378                : en:Chapter 13
    01:12:25.174                : en:Chapter 14
    01:16:21.243                : en:Chapter 15
    01:24:35.487                : en:Chapter 16



    Geschützter Bereich - Bedanke dich beim Poster, um den Bereich sehen zu können
    Hier erfährst Du wie Du Dich bedanken kannst oder werde jetzt Premium Mitglied ab einer Spende von 5€ und erhalte sofortigen Zugriff auf den Downloadbereich!

  2. 18 Benutzer sagen Danke:

    bastole (8. May 2016),beast27 (16. May 2016),Bullet91 (4. August 2016),Conopas (17. March 2016),Deshi25 (7. May 2016),Invader_Zim (20. March 2016),janik2009 (16. May 2016),KXXXI (19. June 2016),midnighter (2. June 2016),milkywayne (4. April 2016),moflippa (6. September 2016),nbody (17. April 2016),NUVAKWAHU (5. August 2016),Retro (18. March 2016),Smery (17. May 2016),tigerhai (4. May 2016),Xers (2. April 2016),Zelpik (25. March 2016)

Lesezeichen

Berechtigungen

  • Neue Themen erstellen: Nein
  • Themen beantworten: Nein
  • Anhänge hochladen: Nein
  • Beiträge bearbeiten: Nein
  •  

1 2 3 4 5 6 7 8 9 10 11 12 13 14 15 16 17 18 19 20 21 22 23 24 25 26 27 28 29 30 31 32 33 34 35 36 37 38 39 40 41 42 43 44 45 46 47 48 49 50 51 52 53 54 55 56 57 58 59 60 61 62 63 64 65 66 67 68 69 70 71 72 73 74 75 76 77 78 79 80 81 82 83 84 85 86 87 88 89 90 91 92 93 94 95 96 97 98 99 100 101 102 103 104 105 106 107 108 109 110 111 112 113 114 115 116 117 118 119 120 121 122 123 124 125 126 127 128 129 130 131 132 133 134 135 136 137 138 139 140 141 142 143 144 145 146 147 148 149 150 151 152 153 154 155 156 157 158