Ergebnis 1 bis 1 von 1

Thema: Pom Poko (1994) + Extras [Ger-Jap-Dub][DTS-HD MA][Ger-Sub][1080p][BluRay][Remux]-SantaKlaus

Dieser Thread wurde noch nicht bewertet. Bewerte ihn doch, wenn er dir gefällt!
  1. #1
    Kleiner Experte Avatar von SantaKlaus
    Registriert seit
    Feb 2014
    Beiträge
    103
    Punkte
    5.867
    Errungenschaften:
    Hikikomori5000 Erfahrungspunkte

    Pom Poko (1994) + Extras [Ger-Jap-Dub][DTS-HD MA][Ger-Sub][1080p][BluRay][Remux]-SantaKlaus

    Pom Poko
    Heisei Tanuki Gassen Ponpoko
    平成狸合戦ぽんぽこ






    Kurzbeschreibung:
    Fortschreitender Wohnungsbau zwingt die Waschbären aus den Tama-Hügeln vor den Toren Tokios, ihre Heimat zu verlassen. Um Wohnanlagen zu bauen, holzen die Menschen die Wälder ab und ebnen die Hügel ein und nehmen den Waschbären so Lebensraum und Nahrungsgrundlage. Doch einige weise, alte Waschbären möchten den Versuch unternehmen, die Menschen auf die traditionelle, uralte Art der Waschbären zu bekämpfen, und die Verwandlungskünste einsetzen, die nur Waschbären, Füchse und einige Katzen beherrschen.

    So wird nach drei sehr alten Lehrern dieser Kunst gesendet und nach fleißigem Training gelingt es einigen Waschbären, sich durch Metamorphose in Gegenstände zu verwandeln. Manchmal können sie sogar menschliche Gestalt annehmen. Doch diese Transformationen kosten viel Energie und es erfordert hohe Konzentration, das menschliche Aussehen über längere Zeiträume hinweg beizubehalten.


    Format: 16:9
    Auflösung: 1080p
    Source: Blu-ray
    Codec: AVC
    Hoster: Share-Online
    Ton:
    Deutsch DTS-HD MA 2.0
    Japanisch DTS-HD MA 2.0

    Dateiliste
    Spoiler
    Code:
    Pom Poko (1994)/Pom Poko (1994).mkv
    Pom Poko (1994)/Scenes/BD Menu.mkv
    Pom Poko (1994)/Scenes/Storyboards zum kompletten Film.mkv
    Pom Poko (1994)/Trailers/Trailer 1.mkv
    Pom Poko (1994)/Trailers/Trailer 2.mkv
    Pom Poko (1994)/Trailers/Trailer 3.mkv


    MediaInfo
    Spoiler
    Code:
    General
    Unique ID                   : 56058366938550159518784397308078663627 (0x2A2C72E169E850CFA79F10F98E8527CB)
    Complete name               : Pom Poko (1994).mkv
    Format                      : Matroska
    Format version              : Version 2
    File size                   : 26.1 GiB
    Duration                    : 1h 59mn
    Overall bit rate mode       : Variable
    Overall bit rate            : 31.3 Mbps
    Movie name                  : Pom Poko
    Encoded date                : UTC 2016-02-25 19:04:27
    Writing application         : MakeMKV v1.9.9 win(x64-release)
    Writing library             : libmakemkv v1.9.9 (1.3.3/1.4.4) win(x64-release)
    Original source medium      : Blu-ray
    
    Video
    ID                          : 1
    ID in the original source m : 4113 (0x1011)
    Format                      : AVC
    Format/Info                 : Advanced Video Codec
    Format profile              : [email protected]
    Format settings, CABAC      : Yes
    Format settings, ReFrames   : 4 frames
    Codec ID                    : V_MPEG4/ISO/AVC
    Duration                    : 1h 59mn
    Bit rate mode               : Variable
    Bit rate                    : 27.9 Mbps
    Maximum bit rate            : 38.0 Mbps
    Width                       : 1 920 pixels
    Height                      : 1 080 pixels
    Display aspect ratio        : 16:9
    Frame rate mode             : Constant
    Frame rate                  : 23.976 (24000/1001) fps
    Color space                 : YUV
    Chroma subsampling          : 4:2:0
    Bit depth                   : 8 bits
    Scan type                   : Progressive
    Bits/(Pixel*Frame)          : 0.562
    Stream size                 : 23.2 GiB (89%)
    Language                    : Japanese
    Default                     : Yes
    Forced                      : No
    
    Audio #1
    ID                          : 2
    ID in the original source m : 4352 (0x1100)
    Format                      : DTS
    Format/Info                 : Digital Theater Systems
    Format profile              : MA / Core
    Mode                        : 16
    Format settings, Endianness : Big
    Codec ID                    : A_DTS
    Duration                    : 1h 59mn
    Bit rate mode               : Variable / Constant
    Bit rate                    : 1 646 Kbps / 768 Kbps
    Channel(s)                  : 2 channels
    Channel positions           : Front: L R
    Sampling rate               : 48.0 KHz
    Frame rate                  : 93.750 fps (512 spf)
    Bit depth                   : 24 bits
    Compression mode            : Lossless / Lossy
    Stream size                 : 1.37 GiB (5%)
    Language                    : German
    Default                     : Yes
    Forced                      : No
    
    Audio #2
    ID                          : 3
    ID in the original source m : 4353 (0x1101)
    Format                      : DTS
    Format/Info                 : Digital Theater Systems
    Format profile              : MA / Core
    Mode                        : 16
    Format settings, Endianness : Big
    Codec ID                    : A_DTS
    Duration                    : 1h 59mn
    Bit rate mode               : Variable / Constant
    Bit rate                    : 1 699 Kbps / 768 Kbps
    Channel(s)                  : 2 channels
    Channel positions           : Front: L R
    Sampling rate               : 48.0 KHz
    Frame rate                  : 93.750 fps (512 spf)
    Bit depth                   : 24 bits
    Compression mode            : Lossless / Lossy
    Stream size                 : 1.41 GiB (5%)
    Language                    : Japanese
    Default                     : No
    Forced                      : No
    
    Text #1
    ID                          : 5
    ID in the original source m : 4609 (0x1201)
    Format                      : PGS
    Codec ID                    : S_HDMV/PGS
    Codec ID/Info               : Picture based subtitle format used on BDs/HD-DVDs
    Duration                    : 1h 58mn
    Bit rate                    : 1 507 bps
    Count of elements           : 156
    Stream size                 : 1.28 MiB (0%)
    Language                    : German
    Default                     : Yes
    Forced                      : Yes
    
    Text #2
    ID                          : 6
    ID in the original source m : 4608 (0x1200)
    Format                      : PGS
    Codec ID                    : S_HDMV/PGS
    Codec ID/Info               : Picture based subtitle format used on BDs/HD-DVDs
    Duration                    : 1h 58mn
    Bit rate                    : 36.7 Kbps
    Count of elements           : 2252
    Stream size                 : 31.1 MiB (0%)
    Language                    : German
    Default                     : No
    Forced                      : No
    
    Text #3
    ID                          : 7
    ID in the original source m : 4609 (0x1201)
    Format                      : PGS
    Codec ID                    : S_HDMV/PGS
    Codec ID/Info               : Picture based subtitle format used on BDs/HD-DVDs
    Duration                    : 1h 58mn
    Bit rate                    : 1 507 bps
    Count of elements           : 156
    Stream size                 : 1.28 MiB (0%)
    Language                    : German
    Default                     : No
    Forced                      : No
    
    Menu
    00:00:00.000                : en:Chapter 01
    00:06:30.139                : en:Chapter 02
    00:15:52.451                : en:Chapter 03
    00:21:51.810                : en:Chapter 04
    00:26:53.486                : en:Chapter 05
    00:33:02.855                : en:Chapter 06
    00:41:46.295                : en:Chapter 07
    00:50:07.629                : en:Chapter 08
    00:57:18.393                : en:Chapter 09
    01:05:40.686                : en:Chapter 10
    01:17:04.286                : en:Chapter 11
    01:23:17.158                : en:Chapter 12
    01:32:06.687                : en:Chapter 13
    01:42:00.697                : en:Chapter 14
    01:50:59.402                : en:Chapter 15



    Geschützter Bereich - Bedanke dich beim Poster, um den Bereich sehen zu können
    Hier erfährst Du wie Du Dich bedanken kannst oder werde jetzt Premium Mitglied ab einer Spende von 5€ und erhalte sofortigen Zugriff auf den Downloadbereich!

  2. 9 Benutzer sagen Danke:

    Conopas (3. March 2016),DarkTerminator (29. July 2016),eddi992 (1. April 2016),fullmetal1995 (15. March 2016),GutsSchielke (6. April 2016),KXXXI (23. June 2016),midnighter (27. March 2016),Neyzu (19. March 2016),tokyodrift (27. June 2016)

Lesezeichen

Berechtigungen

  • Neue Themen erstellen: Nein
  • Themen beantworten: Nein
  • Anhänge hochladen: Nein
  • Beiträge bearbeiten: Nein
  •  

1 2 3 4 5 6 7 8 9 10 11 12 13 14 15 16 17 18 19 20 21 22 23 24 25 26 27 28 29 30 31 32 33 34 35 36 37 38 39 40 41 42 43 44 45 46 47 48 49 50 51 52 53 54 55 56 57 58 59 60 61 62 63 64 65 66 67 68 69 70 71 72 73 74 75 76 77 78 79 80 81 82 83 84 85 86 87 88 89 90 91 92 93 94 95 96 97 98 99 100 101 102 103 104 105 106 107 108 109 110 111 112 113 114 115 116 117 118 119 120 121 122 123 124 125 126 127 128 129 130 131 132 133 134 135 136 137 138 139 140 141 142 143 144 145 146 147 148 149 150 151 152 153 154 155 156 157 158