Ergebnis 1 bis 4 von 4

Thema: Resident Evil Damnation [GerDub][DVDRip]

Dieser Thread wurde noch nicht bewertet. Bewerte ihn doch, wenn er dir gefällt!
  1. #1
    Erfahrener Otaku Avatar von ohlong
    Registriert seit
    Sep 2013
    Ort
    Im Herzen Deutschlands
    Beiträge
    151
    Punkte
    5.807
    Errungenschaften:
    TomodachisTagger Profi5000 ErfahrungspunkteHikikomori

    Resident Evil Damnation [GerDub][DVDRip]



    Biohazard: Damnation
    バイオハザード ダムネーション
    Resident Evil: Damnation





    Kurzbeschreibung
    US-Special-Agent Leon S. Kennedy schmuggelt sich in ein kleines osteuropäisches Land ein, um Gerüchten nachzugehen, nach denen bioorganische Waffen (BOW) im Krieg eingesetzt werden. Kurz nach seiner Infiltration ruft ihn die amerikanische Regierung zur sofortigen Rückkehr auf. Doch Leon will die Wahrheit wissen, ignoriert den Befehl und stürzt sich entschlossen in den Kampf, um weitere Tragödien durch die BOW zu verhindern.

    Sprache: Deutsch
    Genre: Action, Horror, Gegenwart
    Source: DVD
    Format: avi
    Video-Codec: Xvid
    Resolution: 720x400
    Größe: 951MB
    Releaser: stars
    Hoster: Share-Online, Uploaded


    Technische Informationen
    Spoiler
    Code:
    Format                                   : AVI
    Format/Info                              : Audio Video Interleave
    File size                                : 951 MiB
    Duration                                 : 1h 40mn
    Overall bit rate                         : 1 330 Kbps
    Writing application                      : VirtualDubMod 1.5.10.2 (build 2540/release)
    Writing library                          : VirtualDubMod build 2540/release
    
    Video
    ID                                       : 0
    Format                                   : MPEG-4 Visual
    Format profile                           : Advanced [email protected]
    Format settings, BVOP                    : 2
    Format settings, QPel                    : No
    Format settings, GMC                     : No warppoints
    Format settings, Matrix                  : Default (MPEG)
    Codec ID                                 : XVID
    Codec ID/Hint                            : XviD
    Duration                                 : 1h 40mn
    Bit rate                                 : 872 Kbps
    Width                                    : 720 pixels
    Height                                   : 400 pixels
    Display aspect ratio                     : 16:9
    Frame rate                               : 23.976 fps
    Color space                              : YUV
    Chroma subsampling                       : 4:2:0
    Bit depth                                : 8 bits
    Scan type                                : Progressive
    Compression mode                         : Lossy
    Bits/(Pixel*Frame)                       : 0.126
    Stream size                              : 624 MiB (66%)
    Writing library                          : XviD 64
    
    Audio
    ID                                       : 1
    Format                                   : AC-3
    Format/Info                              : Audio Coding 3
    Mode extension                           : CM (complete main)
    Format settings, Endianness              : Big
    Codec ID                                 : 2000
    Duration                                 : 1h 40mn
    Bit rate mode                            : Constant
    Bit rate                                 : 448 Kbps
    Channel(s)                               : 6 channels
    Channel positions                        : Front: L C R, Side: L R, LFE
    Sampling rate                            : 48.0 KHz
    Bit depth                                : 16 bits
    Compression mode                         : Lossy
    Stream size                              : 321 MiB (34%)
    Alignment                                : Split accross interleaves
    Interleave, duration                     : 42 ms (1.00 video frame)
    Interleave, preload duration             : 500 ms



    Password
    [email protected]

    Geschützter Bereich - Bedanke dich beim Poster, um den Bereich sehen zu können
    Hier erfährst Du wie Du Dich bedanken kannst oder werde jetzt Premium Mitglied ab einer Spende von 5€ und erhalte sofortigen Zugriff auf den Downloadbereich!

    Geändert von ohlong (12. January 2016 um 16:26 Uhr)

  2. 29 Benutzer sagen Danke:

    Akio (5. February 2016),Blackdragon1702 (22. October 2015),ChristianLake (29. December 2014),ErzaScarlet (8. December 2015),fellmer (10. June 2016),Fr4nc1S (3. September 2015),freakwatcher (23. September 2015),GammaWar (21. July 2015),Gatti1983 (12. March 2015),Gebbi (5. August 2015),Heroic (1. December 2014),Hisaki (23. November 2015),hundekuchen (7. July 2015),Jinnay (31. December 2014),kilosierra (10. March 2014),Kitefist (11. January 2015),Lautrerbomber (14. March 2015),midnighter (15. February 2015),paulito.1 (16. March 2014),prinzvegeta (1. January 2016),Raidøn (30. December 2014),Roy_Coleman (20. March 2014),Sairenji (11. March 2014),Sammy0608 (12. April 2015),Shadow7525 (23. March 2015),simi90 (3. January 2015),Tarlysin (18. August 2014),Zaisen (24. October 2013),zerdest90 (13. December 2013)

  3. #2
    Erfahrener Otaku Avatar von ohlong
    Registriert seit
    Sep 2013
    Ort
    Im Herzen Deutschlands
    Beiträge
    151
    Punkte
    5.807
    Errungenschaften:
    TomodachisTagger Profi5000 ErfahrungspunkteHikikomori

    AW: Resident Evil Damnation [GerDub][DVDRip]

    Reup auf Wunsch auf Share-Online und Uploaded.

  4. #3
    Erfahrener Otaku Avatar von ohlong
    Registriert seit
    Sep 2013
    Ort
    Im Herzen Deutschlands
    Beiträge
    151
    Punkte
    5.807
    Errungenschaften:
    TomodachisTagger Profi5000 ErfahrungspunkteHikikomori

    AW: Resident Evil Damnation [GerDub][DVDRip]

    Reup auf Share-Online & Uploaded

  5. #4
    Erfahrener Otaku Avatar von ohlong
    Registriert seit
    Sep 2013
    Ort
    Im Herzen Deutschlands
    Beiträge
    151
    Punkte
    5.807
    Errungenschaften:
    TomodachisTagger Profi5000 ErfahrungspunkteHikikomori

    AW: Resident Evil Damnation [GerDub][DVDRip]

    Reup auf Share-Online & Uploaded

Stichworte

Lesezeichen

Berechtigungen

  • Neue Themen erstellen: Nein
  • Themen beantworten: Nein
  • Anhänge hochladen: Nein
  • Beiträge bearbeiten: Nein
  •  

1 2 3 4 5 6 7 8 9 10 11 12 13 14 15 16 17 18 19 20 21 22 23 24 25 26 27 28 29 30 31 32 33 34 35 36 37 38 39 40 41 42 43 44 45 46 47 48 49 50 51 52 53 54 55 56 57 58 59 60 61 62 63 64 65 66 67 68 69 70 71 72 73 74 75 76 77 78 79 80 81 82 83 84 85 86 87 88 89 90 91 92 93 94 95 96 97 98 99 100 101 102 103 104 105 106 107 108 109 110 111 112 113 114 115 116 117 118 119 120 121 122 123 124 125 126 127 128 129 130 131 132 133 134 135 136 137 138 139 140 141 142 143 144 145 146 147 148 149 150 151 152 153 154 155 156 157 158