Ergebnis 1 bis 4 von 4

Thema: Resident Evil Degeneration [GerDub][DVDRip]

Dieser Thread wurde noch nicht bewertet. Bewerte ihn doch, wenn er dir gefällt!
  1. #1
    Erfahrener Otaku Avatar von ohlong
    Registriert seit
    Sep 2013
    Ort
    Im Herzen Deutschlands
    Beiträge
    151
    Punkte
    5.807
    Errungenschaften:
    TomodachisTagger Profi5000 ErfahrungspunkteHikikomori

    Resident Evil Degeneration [GerDub][DVDRip]



    Biohazard: Degeneration
    バイオハザード:ディジェネレーション
    Resident Evil: Degeneration





    Kurzbeschreibung
    Raccoon City wurde dem Erdboden gleichgemacht und jede Spur des T-Virus dadurch zerstört. So war zumindest der Gedanke bei dieser Aktion. Doch sieben Jahre später kommt es wieder zu einer Situation, in der Zombies Angst und Schrecken verbreiten. Nur diesmal ist ein Flughafen der Schauplatz. Ist der T-Virus wieder zurück, Umbrella doch noch aktiv, oder ist jemand neues dafür verantwortlich? Diese Fragen müssen Claire Redfield und Leon S. Kennedy - beide Charaktere aus dem zweiten "Resident Evil"-Spiel - lösen. Begleitet die beiden, wie sie sich wieder durch eine Horde Zombies und schlimmeres kämpfen müssen.

    Sprache: Deutsch
    Genre: Action, Horror, Gegenwart
    Source: DVD
    Format: avi
    Video-Codec: Xvid
    Resolution: 640x352
    Größe: 700MB
    Releaser: ?
    Hoster: Share-Online, Uploaded


    Technische Informationen
    Spoiler
    Code:
    Format                                   : AVI
    Format/Info                              : Audio Video Interleave
    File size                                : 700 MiB
    Duration                                 : 1h 32mn
    Overall bit rate mode                    : Variable
    Overall bit rate                         : 1 062 Kbps
    Writing application                      : VirtualDubMod 1.5.10.2 (build 2540/release)
    Writing library                          : VirtualDubMod build 2540/release
    
    Video
    ID                                       : 0
    Format                                   : MPEG-4 Visual
    Format profile                           : Advanced [email protected]
    Format settings, BVOP                    : 2
    Format settings, QPel                    : No
    Format settings, GMC                     : No warppoints
    Format settings, Matrix                  : Default (MPEG)
    Codec ID                                 : XVID
    Codec ID/Hint                            : XviD
    Duration                                 : 1h 32mn
    Bit rate                                 : 922 Kbps
    Width                                    : 640 pixels
    Height                                   : 352 pixels
    Display aspect ratio                     : 16:9
    Frame rate                               : 25.000 fps
    Color space                              : YUV
    Chroma subsampling                       : 4:2:0
    Bit depth                                : 8 bits
    Scan type                                : Progressive
    Compression mode                         : Lossy
    Bits/(Pixel*Frame)                       : 0.164
    Stream size                              : 608 MiB (87%)
    Writing library                          : XviD 1.1.2 (UTC 2006-11-01)
    
    Audio
    ID                                       : 1
    Format                                   : MPEG Audio
    Format version                           : Version 1
    Format profile                           : Layer 3
    Mode                                     : Joint stereo
    Mode extension                           : MS Stereo
    Codec ID                                 : 55
    Codec ID/Hint                            : MP3
    Duration                                 : 1h 32mn
    Bit rate mode                            : Variable
    Bit rate                                 : 133 Kbps
    Channel(s)                               : 2 channels
    Sampling rate                            : 48.0 KHz
    Compression mode                         : Lossy
    Stream size                              : 83.8 MiB (12%)
    Alignment                                : Aligned on interleaves
    Interleave, duration                     : 24 ms (0.60 video frame)
    Interleave, preload duration             : 145 ms
    Writing library                          : LAME3.97b
    Encoding settings                        : -m j -V 4 -q 3 -lowpass 17 --abr 133



    Password
    [email protected]

    Geschützter Bereich - Bedanke dich beim Poster, um den Bereich sehen zu können
    Hier erfährst Du wie Du Dich bedanken kannst oder werde jetzt Premium Mitglied ab einer Spende von 5€ und erhalte sofortigen Zugriff auf den Downloadbereich!

    Geändert von ohlong (12. January 2016 um 17:01 Uhr)

  2. 20 Benutzer sagen Danke:

    Akio (5. February 2016),Alucard1994 (7. June 2014),BlackIron (12. January 2015),ChristianLake (29. December 2014),crazy_p (29. September 2015),fellmer (13. June 2016),freakwatcher (23. September 2015),Gebbi (5. August 2015),Heroic (12. May 2014),Hisaki (23. November 2015),hundekuchen (7. July 2015),Jinnay (31. December 2014),kilosierra (10. March 2014),Kitefist (11. January 2015),midnighter (28. December 2014),Raidøn (30. December 2014),Sairenji (11. March 2014),Tai1988 (2. August 2015),Tarlysin (18. August 2014),Zaisen (24. October 2013)

  3. #2
    Erfahrener Otaku Avatar von ohlong
    Registriert seit
    Sep 2013
    Ort
    Im Herzen Deutschlands
    Beiträge
    151
    Punkte
    5.807
    Errungenschaften:
    TomodachisTagger Profi5000 ErfahrungspunkteHikikomori

    AW: Resident Evil Degeneration [GerDub][DVDRip]

    Reup auf Wunsch auf Share-Online und Uploaded.

  4. #3
    Erfahrener Otaku Avatar von ohlong
    Registriert seit
    Sep 2013
    Ort
    Im Herzen Deutschlands
    Beiträge
    151
    Punkte
    5.807
    Errungenschaften:
    TomodachisTagger Profi5000 ErfahrungspunkteHikikomori

    AW: Resident Evil Degeneration [GerDub][DVDRip]

    Reup auf Share-Online & Uploaded

  5. #4
    Erfahrener Otaku Avatar von ohlong
    Registriert seit
    Sep 2013
    Ort
    Im Herzen Deutschlands
    Beiträge
    151
    Punkte
    5.807
    Errungenschaften:
    TomodachisTagger Profi5000 ErfahrungspunkteHikikomori

    AW: Resident Evil Degeneration [GerDub][DVDRip]

    Reup auf Share-Online & Uploaded

Stichworte

Lesezeichen

Berechtigungen

  • Neue Themen erstellen: Nein
  • Themen beantworten: Nein
  • Anhänge hochladen: Nein
  • Beiträge bearbeiten: Nein
  •  

1 2 3 4 5 6 7 8 9 10 11 12 13 14 15 16 17 18 19 20 21 22 23 24 25 26 27 28 29 30 31 32 33 34 35 36 37 38 39 40 41 42 43 44 45 46 47 48 49 50 51 52 53 54 55 56 57 58 59 60 61 62 63 64 65 66 67 68 69 70 71 72 73 74 75 76 77 78 79 80 81 82 83 84 85 86 87 88 89 90 91 92 93 94 95 96 97 98 99 100 101 102 103 104 105 106 107 108 109 110 111 112 113 114 115 116 117 118 119 120 121 122 123 124 125 126 127 128 129 130 131 132 133 134 135 136 137 138 139 140 141 142 143 144 145 146 147 148 149 150 151 152 153 154 155 156 157 158