Ergebnis 1 bis 1 von 1

Thema: Robotic Angel (2001) [Ger-Jap-Eng-Dub][FLAC][TrueHD][Ger-Eng-Jap-Sub][1080p][x264/AVC][BluRay]-SantaKlaus

Dieser Thread wurde noch nicht bewertet. Bewerte ihn doch, wenn er dir gefällt!
  1. #1
    Kleiner Experte Avatar von SantaKlaus
    Registriert seit
    Feb 2014
    Beiträge
    103
    Punkte
    5.867
    Errungenschaften:
    Hikikomori5000 Erfahrungspunkte

    Robotic Angel (2001) [Ger-Jap-Eng-Dub][FLAC][TrueHD][Ger-Eng-Jap-Sub][1080p][x264/AVC][BluRay]-SantaKlaus

    Robotic Angel
    Metropolis
    メトロポリス






    Kurzbeschreibung:
    Detektiv Shunsaku-Ban und sein Neffe Kenichi sind einem verrückten Wissenschaftler auf der Spur, der sich irgendwo in Metropolis versteckt, wie man aus verlässlichen Quellen weiß. Auf der Suche nach Dr. Laughton trifft Kenichi auf ein Mädchen namens Tima. Jenes geheimnisvolle Mädchen besitzt keinerlei Erinnerungen an ihre Vergangenheit und Kenichi wird somit in eine viel größere Angelegenheit gezogen, als er sich zu träumen wagt. Gejagt von Rock, einem Roboterjäger aus Leidenschaft, fliehen sie ahnungslos quer durch Metropolis.


    Format: 16:9
    Auflösung: 1818x992 (cropped, weil die JP BD wieder mit Overscan produziert wurde)
    Source: JP Blu-ray
    Codec: x264
    Settings: --preset veryslow --tune film --crf 16.0 --ref 4
    Hoster: Share-Online
    Ton:
    Deutsch FLAC 5.1 (lossless Slowdown von DTS der DE DVD)
    Japanisch TrueHD 5.1 (von JP BD)
    Japanisch FLAC 2.0 (von JP BD als PCM)
    Englisch FLAC 2.0 (lossless Slowdown von AC3 der DE DVD)


    Spoiler
    Code:
    General
    Unique ID                   : 175045204800424849571248339279852487916 (0x83B07AEB6A559B8783739274B40E44EC)
    Complete name               : Robotic Angel (2001) [x264].mkv
    Format                      : Matroska
    Format version              : Version 4 / Version 2
    File size                   : 18.2 GiB
    Duration                    : 1h 47mn
    Overall bit rate mode       : Variable
    Overall bit rate            : 24.2 Mbps
    Encoded date                : UTC 2016-03-10 02:04:50
    Writing application         : mkvmerge v8.9.0 ('Father Daughter') 64bit
    Writing library             : libebml v1.3.3 + libmatroska v1.4.4
    
    Video
    ID                          : 1
    Format                      : AVC
    Format/Info                 : Advanced Video Codec
    Format profile              : [email protected]
    Format settings, CABAC      : Yes
    Format settings, ReFrames   : 4 frames
    Codec ID                    : V_MPEG4/ISO/AVC
    Duration                    : 1h 47mn
    Bit rate                    : 17.2 Mbps
    Width                       : 1 818 pixels
    Height                      : 992 pixels
    Display aspect ratio        : 1.85:1
    Frame rate mode             : Constant
    Frame rate                  : 23.976 (24000/1001) fps
    Color space                 : YUV
    Chroma subsampling          : 4:2:0
    Bit depth                   : 8 bits
    Scan type                   : Progressive
    Bits/(Pixel*Frame)          : 0.399
    Stream size                 : 12.9 GiB (71%)
    Writing library             : x264 core 148 r2638 7599210
    Encoding settings           : cabac=1 / ref=4 / deblock=1:-1:-1 / analyse=0x3:0x133 / me=umh / subme=10 / psy=1 / psy_rd=1.00:0.15 / mixed_ref=1 / me_range=24 / chroma_me=1 / trellis=2 / 8x8dct=1 / cqm=0 / deadzone=21,11 / fast_pskip=1 / chroma_qp_offset=-3 / threads=6 / lookahead_threads=1 / sliced_threads=0 / nr=0 / decimate=1 / interlaced=0 / bluray_compat=0 / constrained_intra=0 / bframes=8 / b_pyramid=2 / b_adapt=2 / b_bias=0 / direct=3 / weightb=1 / open_gop=0 / weightp=2 / keyint=240 / keyint_min=23 / scenecut=40 / intra_refresh=0 / rc_lookahead=60 / rc=crf / mbtree=1 / crf=16.0 / qcomp=0.60 / qpmin=0 / qpmax=69 / qpstep=4 / ip_ratio=1.40 / aq=1:1.00
    Language                    : Japanese
    Default                     : Yes
    Forced                      : No
    
    Audio #1
    ID                          : 2
    Format                      : FLAC
    Format/Info                 : Free Lossless Audio Codec
    Codec ID                    : A_FLAC
    Duration                    : 1h 47mn
    Bit rate mode               : Variable
    Bit rate                    : 3 138 Kbps
    Channel(s)                  : 6 channels
    Channel positions           : Front: L C R, Side: L R, LFE
    Sampling rate               : 48.0 KHz
    Frame rate                  : 11.719 fps (4096 spf)
    Bit depth                   : 24 bits
    Delay relative to video     : 30ms
    Stream size                 : 2.35 GiB (13%)
    Writing library             : libFLAC 1.2.1 (UTC 2007-09-17)
    Language                    : German
    Default                     : Yes
    Forced                      : No
    
    Audio #2
    ID                          : 3
    Format                      : TrueHD
    Codec ID                    : A_TRUEHD
    Duration                    : 1h 47mn
    Bit rate mode               : Variable
    Bit rate                    : 1 780 Kbps
    Maximum bit rate            : 3 330 Kbps
    Channel(s)                  : 6 channels
    Channel positions           : Front: L C R, Side: L R, LFE
    Sampling rate               : 48.0 KHz
    Frame rate                  : 1 200.000 fps (40 spf)
    Compression mode            : Lossless
    Stream size                 : 1.34 GiB (7%)
    Language                    : Japanese
    Default                     : No
    Forced                      : No
    
    Audio #3
    ID                          : 4
    Format                      : FLAC
    Format/Info                 : Free Lossless Audio Codec
    Codec ID                    : A_FLAC
    Duration                    : 1h 47mn
    Bit rate mode               : Variable
    Bit rate                    : 608 Kbps
    Channel(s)                  : 2 channels
    Channel positions           : Front: L R
    Sampling rate               : 48.0 KHz
    Frame rate                  : 11.719 fps (4096 spf)
    Bit depth                   : 16 bits
    Stream size                 : 467 MiB (3%)
    Writing library             : libFLAC 1.2.1 (UTC 2007-09-17)
    Language                    : Japanese
    Default                     : No
    Forced                      : No
    
    Audio #4
    ID                          : 5
    Format                      : FLAC
    Format/Info                 : Free Lossless Audio Codec
    Codec ID                    : A_FLAC
    Duration                    : 1h 47mn
    Bit rate mode               : Variable
    Bit rate                    : 1 285 Kbps
    Channel(s)                  : 2 channels
    Channel positions           : Front: L R
    Sampling rate               : 48.0 KHz
    Frame rate                  : 11.719 fps (4096 spf)
    Bit depth                   : 24 bits
    Delay relative to video     : 30ms
    Stream size                 : 987 MiB (5%)
    Writing library             : libFLAC 1.2.1 (UTC 2007-09-17)
    Language                    : English
    Default                     : No
    Forced                      : No
    
    Text #1
    ID                          : 6
    Format                      : UTF-8
    Codec ID                    : S_TEXT/UTF8
    Codec ID/Info               : UTF-8 Plain Text
    Duration                    : 6s 263ms
    Bit rate                    : 76 bps
    Count of elements           : 1
    Stream size                 : 60.0 Bytes (0%)
    Language                    : German
    Default                     : Yes
    Forced                      : Yes
    
    Text #2
    ID                          : 7
    Format                      : UTF-8
    Codec ID                    : S_TEXT/UTF8
    Codec ID/Info               : UTF-8 Plain Text
    Duration                    : 1h 47mn
    Bit rate                    : 40 bps
    Count of elements           : 744
    Stream size                 : 31.8 KiB (0%)
    Language                    : German
    Default                     : No
    Forced                      : No
    
    Text #3
    ID                          : 8
    Format                      : UTF-8
    Codec ID                    : S_TEXT/UTF8
    Codec ID/Info               : UTF-8 Plain Text
    Duration                    : 1h 42mn
    Bit rate                    : 30 bps
    Count of elements           : 662
    Stream size                 : 22.9 KiB (0%)
    Title                       : Original japanische Übersetzung
    Language                    : English
    Default                     : No
    Forced                      : No
    
    Text #4
    ID                          : 9
    Format                      : UTF-8
    Codec ID                    : S_TEXT/UTF8
    Codec ID/Info               : UTF-8 Plain Text
    Duration                    : 1h 47mn
    Bit rate                    : 31 bps
    Count of elements           : 744
    Stream size                 : 25.0 KiB (0%)
    Title                       : Kino-Sprachversion USA
    Language                    : English
    Default                     : No
    Forced                      : No
    
    Text #5
    ID                          : 10
    Format                      : PGS
    Muxing mode                 : zlib
    Codec ID                    : S_HDMV/PGS
    Codec ID/Info               : Picture based subtitle format used on BDs/HD-DVDs
    Duration                    : 1h 41mn
    Bit rate                    : 130 Kbps
    Count of elements           : 9001
    Stream size                 : 94.4 MiB (1%)
    Language                    : Japanese
    Default                     : No
    Forced                      : No
    
    Menu
    00:00:00.000                : en:Chapter 01
    00:03:07.729                : en:Chapter 02
    00:04:53.251                : en:Chapter 03
    00:05:58.941                : en:Chapter 04
    00:06:55.665                : en:Chapter 05
    00:07:36.706                : en:Chapter 06
    00:09:34.282                : en:Chapter 07
    00:10:23.247                : en:Chapter 08
    00:13:08.162                : en:Chapter 09
    00:14:13.727                : en:Chapter 10
    00:16:21.897                : en:Chapter 11
    00:19:12.276                : en:Chapter 12
    00:22:28.847                : en:Chapter 13
    00:23:28.907                : en:Chapter 14
    00:24:34.473                : en:Chapter 15
    00:25:33.448                : en:Chapter 16
    00:27:08.460                : en:Chapter 17
    00:28:50.562                : en:Chapter 18
    00:30:38.169                : en:Chapter 19
    00:33:21.290                : en:Chapter 20
    00:35:12.443                : en:Chapter 21
    00:36:26.934                : en:Chapter 22
    00:38:01.028                : en:Chapter 23
    00:38:40.067                : en:Chapter 24
    00:39:22.401                : en:Chapter 25
    00:41:25.858                : en:Chapter 26
    00:43:20.723                : en:Chapter 27
    00:46:06.096                : en:Chapter 28
    00:47:13.914                : en:Chapter 29
    00:48:53.555                : en:Chapter 30
    00:49:45.524                : en:Chapter 31
    00:50:40.078                : en:Chapter 32
    00:52:12.295                : en:Chapter 33
    00:53:14.608                : en:Chapter 34
    00:54:45.824                : en:Chapter 35
    00:56:43.149                : en:Chapter 36
    00:57:58.433                : en:Chapter 37
    00:59:25.979                : en:Chapter 38
    01:01:46.244                : en:Chapter 39
    01:03:30.306                : en:Chapter 40
    01:06:09.006                : en:Chapter 41
    01:07:32.089                : en:Chapter 42
    01:08:39.281                : en:Chapter 43
    01:09:34.587                : en:Chapter 44
    01:12:19.710                : en:Chapter 45
    01:13:54.680                : en:Chapter 46
    01:16:03.016                : en:Chapter 47
    01:17:48.413                : en:Chapter 48
    01:19:24.134                : en:Chapter 49
    01:20:35.163                : en:Chapter 50
    01:24:11.421                : en:Chapter 51
    01:26:15.336                : en:Chapter 52
    01:27:49.555                : en:Chapter 53
    01:30:11.906                : en:Chapter 54
    01:32:01.724                : en:Chapter 55
    01:34:14.440                : en:Chapter 56
    01:38:57.348                : en:Chapter 57
    01:42:45.159                : en:Chapter 58



    Geschützter Bereich - Bedanke dich beim Poster, um den Bereich sehen zu können
    Hier erfährst Du wie Du Dich bedanken kannst oder werde jetzt Premium Mitglied ab einer Spende von 5€ und erhalte sofortigen Zugriff auf den Downloadbereich!

  2. 6 Benutzer sagen Danke:

    Invader_Zim (25. July 2016),midnighter (27. March 2016),Mr.Shit (14. August 2016),Ronae (19. March 2016),starforce (3. April 2016),Tarlysin (14. March 2016)

Lesezeichen

Berechtigungen

  • Neue Themen erstellen: Nein
  • Themen beantworten: Nein
  • Anhänge hochladen: Nein
  • Beiträge bearbeiten: Nein
  •  

1 2 3 4 5 6 7 8 9 10 11 12 13 14 15 16 17 18 19 20 21 22 23 24 25 26 27 28 29 30 31 32 33 34 35 36 37 38 39 40 41 42 43 44 45 46 47 48 49 50 51 52 53 54 55 56 57 58 59 60 61 62 63 64 65 66 67 68 69 70 71 72 73 74 75 76 77 78 79 80 81 82 83 84 85 86 87 88 89 90 91 92 93 94 95 96 97 98 99 100 101 102 103 104 105 106 107 108 109 110 111 112 113 114 115 116 117 118 119 120 121 122 123 124 125 126 127 128 129 130 131 132 133 134 135 136 137 138 139 140 141 142 143 144 145 146 147 148 149 150 151 152 153 154 155 156 157 158