Ergebnis 1 bis 4 von 4

Thema: To: A Space Fantasy [JapGerDub][GerSub][1080p][BluRay]

Dieser Thread wurde noch nicht bewertet. Bewerte ihn doch, wenn er dir gefällt!
  1. #1
    Erfahrener Otaku Avatar von ohlong
    Registriert seit
    Sep 2013
    Ort
    Im Herzen Deutschlands
    Beiträge
    151
    Punkte
    5.807
    Errungenschaften:
    TomodachisTagger Profi5000 ErfahrungspunkteHikikomori

    To: A Space Fantasy [JapGerDub][GerSub][1080p][BluRay]



    To
    To (トゥー)
    To: A Space Fantasy





    Kurzbeschreibung
    Im 22. Jahrhundert erobert die Menschheit das Weltall. Man reist von Stern zu Stern, fördert Rohstoffe in fernen Galaxien und sucht zuvorderst nach Planeten mit lebensfreundlichen Bedingungen. Ein Problem des Weltraumhandels heißt Terrorismus, und heute stellt es die Besatzung des Weltraumfrachters Flying Dutchman vor gravierende Probleme. Andernorts auf einem Lichtjahre entfernten Planeten droht unterdessen der aktuell von der Erde importierte Konflikt zwischen Amerikanern und Eurasiern zu eskalieren. Ein junges Liebespaar, er Ami, sie Europäerin, hält dagegen.

    Sprache: Japanisch, Deutsch
    Untertitel: Deutsch (SRT)
    Genre: Action, Sci-Fi
    Source: BluRay
    Format: mkv
    Video-Codec: x264
    Resolution: 1920x1080
    Größe: 3,12GB
    Releaser: SoW
    Hoster: Share-Online, Uploaded


    Technische Informationen
    Spoiler
    Code:
    Format                                   : Matroska
    Format version                           : Version 2
    File size                                : 3.12 GiB
    Duration                                 : 1h 23mn
    Overall bit rate                         : 5 341 Kbps
    Encoded date                             : UTC 2010-05-07 16:24:06
    Writing application                      : mkvmerge v3.1.0 ('Happy up here') gebaut am Jan 19 2010 12:09:24
    Writing library                          : libebml v0.7.9 + libmatroska v0.8.1
    
    Video
    ID                                       : 1
    Format                                   : AVC
    Format/Info                              : Advanced Video Codec
    Format profile                           : [email protected]
    Format settings, CABAC                   : Yes
    Format settings, ReFrames                : 4 frames
    Codec ID                                 : V_MPEG4/ISO/AVC
    Duration                                 : 1h 23mn
    Bit rate                                 : 2 215 Kbps
    Width                                    : 1 920 pixels
    Height                                   : 1 080 pixels
    Display aspect ratio                     : 16:9
    Frame rate                               : 25.000 fps
    Color space                              : YUV
    Chroma subsampling                       : 4:2:0
    Bit depth                                : 8 bits
    Scan type                                : Progressive
    Bits/(Pixel*Frame)                       : 0.043
    Stream size                              : 1.30 GiB (41%)
    Writing library                          : x264 core 94 r1570 d9db8b3
    Encoding settings                        : cabac=1 / ref=4 / deblock=1:0:0 / analyse=0x3:0x133 / me=umh / subme=7 / psy=1 / psy_rd=1.00:0.00 / mixed_ref=1 / me_range=16 / chroma_me=1 / trellis=1 / 8x8dct=1 / cqm=0 / deadzone=21,11 / fast_pskip=0 / chroma_qp_offset=-2 / threads=6 / sliced_threads=0 / nr=0 / decimate=1 / interlaced=0 / constrained_intra=0 / bframes=3 / b_pyramid=2 / b_adapt=1 / b_bias=0 / direct=1 / wpredb=1 / wpredp=2 / keyint=250 / keyint_min=25 / scenecut=40 / intra_refresh=0 / rc_lookahead=40 / rc=crf / mbtree=1 / crf=20.0 / qcomp=0.60 / qpmin=10 / qpmax=51 / qpstep=4 / ip_ratio=1.40 / aq=1:0.00
    Language                                 : German
    Default                                  : Yes
    Forced                                   : No
    
    Audio #1
    ID                                       : 2
    Format                                   : DTS
    Format/Info                              : Digital Theater Systems
    Codec ID                                 : A_DTS
    Duration                                 : 1h 23mn
    Bit rate mode                            : Constant
    Bit rate                                 : 1 510 Kbps
    Channel(s)                               : 6 channels
    Channel positions                        : Front: L C R, Side: L R, LFE
    Sampling rate                            : 48.0 KHz
    Bit depth                                : 16 bits
    Compression mode                         : Lossy
    Stream size                              : 904 MiB (28%)
    Title                                    : dts(1536)
    Language                                 : German
    Default                                  : Yes
    Forced                                   : No
    
    Audio #2
    ID                                       : 3
    Format                                   : DTS
    Format/Info                              : Digital Theater Systems
    Codec ID                                 : A_DTS
    Duration                                 : 1h 23mn
    Bit rate mode                            : Constant
    Bit rate                                 : 1 510 Kbps
    Channel(s)                               : 6 channels
    Channel positions                        : Front: L C R, Side: L R, LFE
    Sampling rate                            : 48.0 KHz
    Bit depth                                : 16 bits
    Compression mode                         : Lossy
    Stream size                              : 904 MiB (28%)
    Title                                    : dts(1536)
    Language                                 : Japanese
    Default                                  : No
    Forced                                   : No
    
    Text
    ID                                       : 4
    Format                                   : UTF-8
    Codec ID                                 : S_TEXT/UTF8
    Codec ID/Info                            : UTF-8 Plain Text
    Title                                    : normal
    Language                                 : German
    Default                                  : Yes
    Forced                                   : No



    Password
    [email protected]

    Geschützter Bereich - Bedanke dich beim Poster, um den Bereich sehen zu können
    Hier erfährst Du wie Du Dich bedanken kannst oder werde jetzt Premium Mitglied ab einer Spende von 5€ und erhalte sofortigen Zugriff auf den Downloadbereich!

    Geändert von ohlong (12. January 2016 um 17:06 Uhr)

  2. 37 Benutzer sagen Danke:

    Aluaran (31. December 2014),amzal (7. February 2016),Angel86 (5. January 2015),BEnBArka (31. January 2014),BlackReaper (2. February 2014),boemb80_inactive (27. April 2014),donma (13. November 2014),downloader_1987 (3. September 2014),Dreieckhard (10. January 2015),freakwatcher (23. September 2015),GammaWar (20. July 2015),Gatti1983 (12. March 2015),Griever (20. December 2015),Haatho7 (30. December 2014),herrwefer (12. October 2015),hundekuchen (19. March 2016),hunter4320 (19. January 2015),Infi (22. March 2015),Jinnay (31. December 2014),Keldaan (7. March 2014),Kitefist (11. January 2015),LordMecha (17. May 2016),LordTakeda (30. December 2014),midnighter (18. January 2015),minimalistix (30. December 2014),oNcLe (12. January 2015),paulito.1 (4. February 2014),Praxas (29. March 2015),Ruff (7. February 2014),Sorko (13. November 2014),sunfun16 (29. August 2014),Tarlysin (18. August 2014),Terraner (9. July 2016),Tzi (21. November 2014),Vaana- (28. October 2014),Viuren (21. July 2014),Watashisan (10. March 2015)

  3. #2
    Erfahrener Otaku Avatar von ohlong
    Registriert seit
    Sep 2013
    Ort
    Im Herzen Deutschlands
    Beiträge
    151
    Punkte
    5.807
    Errungenschaften:
    TomodachisTagger Profi5000 ErfahrungspunkteHikikomori

    AW: To: A Space Fantasy [JapGerDub][GerSub][1080p][BluRay]

    Reup auf Share-Online & Uploaded

  4. 1 Benutzer sagt Danke:

    Aluaran (31. December 2014)

  5. #3
    High Quality Anime Avatar von Uploading123
    Registriert seit
    Mar 2013
    Beiträge
    1.006
    Punkte
    44.015
    Errungenschaften:
    TomodachisTagger Amateur25000 ErfahrungspunkteHikikomoriKapitän

    AW: To: A Space Fantasy [JapGerDub][GerSub][1080p][BluRay]


    TO.A.Space.Fantasy.2009.German.Anime.DTS.DL.1080p. BluRay.x264-SoW



    .:Beschreibung:.
    Nur alle 15 Jahre dockt der Raumgleiter "Flying Dutchman" zur Entladung an die gigantische All-Frachtstation "Midnight Bazooka" an. Doch eine Terrorgruppe übernimmt die Station und zerstört brachial die Wiedersehensfreude. Offenbar trägt die "Flying Dutchman" eine besondere Fracht mit sich, auf die es die Terroristen abgesehen haben. Auf dem sogenannten "Fünften Planeten" arbeiten die Wissenschaftler Ion und Arina für die jeweils verfeindeten Weltkriegsparteien der Erde. Ausgerechnet zu dem Zeitpunkt, als sich Vertreter der Kriegskontrahenten zu Verhandlungen auf dem Planeten einfinden, kommt es zu einem folgenschweren Unfall. Ion infiziert sich mit einem unbekannten Parasiten.


    .:Info:.
    Größe: 3229.13 MB
    Laufzeit: 84 Min.
    Format: .mkv
    Video Stream: BD
    Video Codec: MPEG-4 H.264 / AVC
    Audio Stream: DTS 5.1
    Sprache/n: GER, JPN
    Genre: Animation

    .:NFO:.
    Spoiler
    Code:
    ...iS WATCHiNG
    
    YOU!
    
    TO - A Space Fantasy
    
    RELEASEiNFO:
    
    LABEL...... Splendid Entertainment
    GENRE...... Science Fiction/Anime
    RUNTIME.... 84 min
    FSK........ 12
    Bytes...... 3.30 GB
    SiZE....... 69x50 mkv-file
    SOURCE..... BluRay
    RESOLUTiON. 1920x1080 @ 2.6 mbps
    ViDEOCODEC. x264 /crf20
    AUDIO...... German   :dts 1536 kbps
    Japan    :dts 1536 kbps
    
    Subs....... Yes
    
    RELEASEDATE  07.05.2010
    BluRay DATE  28.05.2010
    iMDB.RATiNG  (n/A)
    
    iMDB URL...  n/A
    
    MEMORY
    
    2ALL FALLEN HEROES


    Mirrors kompatibel

    .:Uploaded.net:.
    Geschützter Bereich - Bedanke dich beim Poster, um den Bereich sehen zu können
    Hier erfährst Du wie Du Dich bedanken kannst oder werde jetzt Premium Mitglied ab einer Spende von 5€ und erhalte sofortigen Zugriff auf den Downloadbereich!

    .:Share-online.biz:.
    Geschützter Bereich - Bedanke dich beim Poster, um den Bereich sehen zu können
    Hier erfährst Du wie Du Dich bedanken kannst oder werde jetzt Premium Mitglied ab einer Spende von 5€ und erhalte sofortigen Zugriff auf den Downloadbereich!


  6. 3 Benutzer sagen Danke:

    Griever (20. December 2015),herrwefer (13. October 2015),LordMecha (17. May 2016)

  7. #4
    Erfahrener Otaku Avatar von ohlong
    Registriert seit
    Sep 2013
    Ort
    Im Herzen Deutschlands
    Beiträge
    151
    Punkte
    5.807
    Errungenschaften:
    TomodachisTagger Profi5000 ErfahrungspunkteHikikomori

    AW: To: A Space Fantasy [JapGerDub][GerSub][1080p][BluRay]

    Reup auf Share-Online & Uploaded

  8. 1 Benutzer sagt Danke:

    amzal (7. February 2016)

Stichworte

Lesezeichen

Berechtigungen

  • Neue Themen erstellen: Nein
  • Themen beantworten: Nein
  • Anhänge hochladen: Nein
  • Beiträge bearbeiten: Nein
  •  

1 2 3 4 5 6 7 8 9 10 11 12 13 14 15 16 17 18 19 20 21 22 23 24 25 26 27 28 29 30 31 32 33 34 35 36 37 38 39 40 41 42 43 44 45 46 47 48 49 50 51 52 53 54 55 56 57 58 59 60 61 62 63 64 65 66 67 68 69 70 71 72 73 74 75 76 77 78 79 80 81 82 83 84 85 86 87 88 89 90 91 92 93 94 95 96 97 98 99 100 101 102 103 104 105 106 107 108 109 110 111 112 113 114 115 116 117 118 119 120 121 122 123 124 125 126 127 128 129 130 131 132 133 134 135 136 137 138 139 140 141 142 143 144 145 146 147 148 149 150 151 152 153 154 155 156 157 158