Ergebnis 1 bis 1 von 1

Thema: Steamboy (2004) + Extras [Ger-Jap-Eng-Dub][FLAC][TrueHD][Ger-Eng-Sub][1080p][Remux][Blu-ray]-SantaKlaus

Dieser Thread wurde noch nicht bewertet. Bewerte ihn doch, wenn er dir gefällt!
  1. #1
    Kleiner Experte Avatar von SantaKlaus
    Registriert seit
    Feb 2014
    Beiträge
    103
    Punkte
    5.867
    Errungenschaften:
    Hikikomori5000 Erfahrungspunkte

    Steamboy (2004) + Extras [Ger-Jap-Eng-Dub][FLAC][TrueHD][Ger-Eng-Sub][1080p][Remux][Blu-ray]-SantaKlaus

    Steamboy
    スチームボーイ






    Kurzbeschreibung:
    London, Ende des 19. Jahrhunderts, in einer fiktiven Vergangenheit: Familie Steam ist eine Wissenschaftsfamilie. Da sie in England nicht die Möglichkeit hatten sich zu etablieren, zogen Vater Loyd und sein Sohn Edwards nach Amerika. Dort erfanden sie drei "Steamkugeln". Diese enthalten den unbändigen Druck des Dampfes, dank extremer Kompression. Doch wie es zu der Zeit ist, sind die Möglichkeiten des Krieges dadurch dem ungeheuren Fortschritt nahe...

    Manchester, 1869 kurz vor der 1. Weltaustellung in London: Sohn Ray lebt mit seinen Geschwistern und der Mutter allein. Gehänselt durch die "Vorgeschichte" seines Vaters und Großvaters, lebt er sein Leben mit Dampferfindungen. Eines Tages bekommt er Post von seinem Großvater. Diese enthält eine der Steamkugeln, doch plötzlich tauchen zwei Gestalten auf und wollen ihm die Kugel wegnehmen. Es beginnt eine atemberaubende Geschichte...


    Format: 16:9
    Auflösung: 1920x1080
    Source: TW Custom BD & DE DVD
    Codec: AVC (TW Custom BD)
    Hoster: Share-Online
    Ton:
    Deutsch FLAC 5.1 (lossless Slowdown DTS von DE DVD)
    Japanisch TrueHD 5.1 @ 24 Bit (TW Custom BD)
    Japanisch DTS-HD MA 5.1 (TW Custom BD)
    Englisch Dolby Digital 5.1 (TW Custom BD)

    Spoiler
    Code:
    Steamboy (2004)/Steamboy (2004).mkv
    Steamboy (2004)/Behind The Scenes/Animations-Entwicklung.mkv
    Steamboy (2004)/Behind The Scenes/Making of Steamboy.mkv
    Steamboy (2004)/Behind The Scenes/Multi Screen Landschafts-Studie.mkv
    Steamboy (2004)/Behind The Scenes/Produktionszeichnungen.mkv
    Steamboy (2004)/Interviews/Interview mit Katsuhiro Otomo.mkv
    Steamboy (2004)/Scenes/Das Abenteuer geht weiter (Abspann ohne Text).mkv
    Steamboy (2004)/Trailers/Theatrical Trailer.mkv


    Spoiler
    Code:
    General
    Unique ID                   : 179081554499981157937961977170344664010 (0x86B9DA530F52D2EBB4800FA7A291DBCA)
    Complete name               : Steamboy (2004).mkv
    Format                      : Matroska
    Format version              : Version 4 / Version 2
    File size                   : 36.0 GiB
    Duration                    : 2h 6mn
    Overall bit rate mode       : Variable
    Overall bit rate            : 40.8 Mbps
    Movie name                  : 蒸氣男孩
    Encoded date                : UTC 2016-03-19 23:00:03
    Writing application         : mkvmerge v8.9.0 ('Father Daughter') 64bit
    Writing library             : libebml v1.3.3 + libmatroska v1.4.4
    
    Video
    ID                          : 1
    Format                      : AVC
    Format/Info                 : Advanced Video Codec
    Format profile              : [email protected]
    Format settings, CABAC      : Yes
    Format settings, ReFrames   : 4 frames
    Codec ID                    : V_MPEG4/ISO/AVC
    Duration                    : 2h 6mn
    Bit rate mode               : Variable
    Bit rate                    : 30.5 Mbps
    Maximum bit rate            : 38.0 Mbps
    Width                       : 1 920 pixels
    Height                      : 1 080 pixels
    Display aspect ratio        : 16:9
    Frame rate mode             : Constant
    Frame rate                  : 23.976 (24000/1001) fps
    Standard                    : NTSC
    Color space                 : YUV
    Chroma subsampling          : 4:2:0
    Bit depth                   : 8 bits
    Scan type                   : Progressive
    Bits/(Pixel*Frame)          : 0.614
    Stream size                 : 26.9 GiB (75%)
    Language                    : Japanese
    Default                     : Yes
    Forced                      : No
    Color range                 : Limited
    Color primaries             : BT.709
    Transfer characteristics    : BT.709
    Matrix coefficients         : BT.709
    
    Audio #1
    ID                          : 2
    Format                      : FLAC
    Format/Info                 : Free Lossless Audio Codec
    Codec ID                    : A_FLAC
    Duration                    : 2h 6mn
    Bit rate mode               : Variable
    Bit rate                    : 3 317 Kbps
    Channel(s)                  : 6 channels
    Channel positions           : Front: L C R, Side: L R, LFE
    Sampling rate               : 48.0 KHz
    Frame rate                  : 11.719 fps (4096 spf)
    Bit depth                   : 24 bits
    Delay relative to video     : 69ms
    Stream size                 : 2.92 GiB (8%)
    Writing library             : libFLAC 1.2.1 (UTC 2007-09-17)
    Language                    : German
    Default                     : Yes
    Forced                      : No
    
    Audio #2
    ID                          : 3
    Format                      : TrueHD
    Codec ID                    : A_TRUEHD
    Duration                    : 2h 6mn
    Bit rate mode               : Variable
    Bit rate                    : 4 089 Kbps
    Maximum bit rate            : 5 133 Kbps
    Channel(s)                  : 6 channels
    Channel positions           : Front: L C R, Side: L R, LFE
    Sampling rate               : 48.0 KHz
    Frame rate                  : 1 200.000 fps (40 spf)
    Compression mode            : Lossless
    Stream size                 : 3.60 GiB (10%)
    Language                    : Japanese
    Default                     : No
    Forced                      : No
    
    Audio #3
    ID                          : 4
    Format                      : DTS
    Format/Info                 : Digital Theater Systems
    Format profile              : MA / Core
    Mode                        : 16
    Format settings, Endianness : Big
    Codec ID                    : A_DTS
    Duration                    : 2h 6mn
    Bit rate mode               : Variable / Constant
    Bit rate                    : 2 394 Kbps / 1 509 Kbps
    Channel(s)                  : 6 channels
    Channel positions           : Front: L C R, Side: L R, LFE
    Sampling rate               : 48.0 KHz
    Frame rate                  : 93.750 fps (512 spf)
    Bit depth                   : 16 bits
    Compression mode            : Lossless / Lossy
    Stream size                 : 2.11 GiB (6%)
    Language                    : Japanese
    Default                     : No
    Forced                      : No
    
    Audio #4
    ID                          : 5
    Format                      : AC-3
    Format/Info                 : Audio Coding 3
    Mode extension              : CM (complete main)
    Format settings, Endianness : Big
    Codec ID                    : A_AC3
    Duration                    : 2h 6mn
    Bit rate mode               : Constant
    Bit rate                    : 448 Kbps
    Channel(s)                  : 6 channels
    Channel positions           : Front: L C R, Side: L R, LFE
    Sampling rate               : 48.0 KHz
    Frame rate                  : 31.250 fps (1536 spf)
    Compression mode            : Lossy
    Stream size                 : 404 MiB (1%)
    Language                    : English
    Default                     : No
    Forced                      : No
    
    Text #1
    ID                          : 6
    Format                      : UTF-8
    Codec ID                    : S_TEXT/UTF8
    Codec ID/Info               : UTF-8 Plain Text
    Duration                    : 2h 4mn
    Bit rate                    : 40 bps
    Count of elements           : 1212
    Stream size                 : 37.2 KiB (0%)
    Language                    : German
    Default                     : No
    Forced                      : No
    
    Text #2
    ID                          : 7
    Format                      : PGS
    Muxing mode                 : zlib
    Codec ID                    : S_HDMV/PGS
    Codec ID/Info               : Picture based subtitle format used on BDs/HD-DVDs
    Duration                    : 1h 59mn
    Bit rate                    : 8 858 bps
    Count of elements           : 2414
    Stream size                 : 7.60 MiB (0%)
    Language                    : English
    Default                     : No
    Forced                      : No
    
    Menu
    00:00:00.000                : zh:Chapter 01
    00:04:24.347                : zh:Chapter 02
    00:14:03.259                : zh:Chapter 03
    00:18:44.998                : zh:Chapter 04
    00:20:59.383                : zh:Chapter 05
    00:24:28.508                : zh:Chapter 06
    00:29:35.023                : zh:Chapter 07
    00:33:14.450                : zh:Chapter 08
    00:43:22.808                : zh:Chapter 09
    00:46:23.113                : zh:Chapter 10
    00:50:11.508                : zh:Chapter 11
    00:55:41.379                : zh:Chapter 12
    01:02:59.484                : zh:Chapter 13
    01:09:43.179                : zh:Chapter 14
    01:15:09.671                : zh:Chapter 15
    01:21:14.494                : zh:Chapter 16
    01:25:43.263                : zh:Chapter 17
    01:30:16.369                : zh:Chapter 18
    01:33:17.425                : zh:Chapter 19
    01:37:25.047                : zh:Chapter 20
    01:42:31.645                : zh:Chapter 21
    01:45:32.492                : zh:Chapter 22
    01:51:56.960                : zh:Chapter 23
    01:59:52.185                : zh:Chapter 24



    Geschützter Bereich - Bedanke dich beim Poster, um den Bereich sehen zu können
    Hier erfährst Du wie Du Dich bedanken kannst oder werde jetzt Premium Mitglied ab einer Spende von 5€ und erhalte sofortigen Zugriff auf den Downloadbereich!

  2. 10 Benutzer sagen Danke:

    Conopas (5. May 2016),FIRST--LAW--FANTASY (7. July 2016),Invader_Zim (22. March 2016),LOL Meister (1. May 2016),manninator (5. June 2016),midnighter (2. June 2016),moflippa (6. April 2016),Mr.Shit (21. March 2016),Raphael96 (15. May 2016),tigerhai (2. April 2016)

Lesezeichen

Berechtigungen

  • Neue Themen erstellen: Nein
  • Themen beantworten: Nein
  • Anhänge hochladen: Nein
  • Beiträge bearbeiten: Nein
  •  

1 2 3 4 5 6 7 8 9 10 11 12 13 14 15 16 17 18 19 20 21 22 23 24 25 26 27 28 29 30 31 32 33 34 35 36 37 38 39 40 41 42 43 44 45 46 47 48 49 50 51 52 53 54 55 56 57 58 59 60 61 62 63 64 65 66 67 68 69 70 71 72 73 74 75 76 77 78 79 80 81 82 83 84 85 86 87 88 89 90 91 92 93 94 95 96 97 98 99 100 101 102 103 104 105 106 107 108 109 110 111 112 113 114 115 116 117 118 119 120 121 122 123 124 125 126 127 128 129 130 131 132 133 134 135 136 137 138 139 140 141 142 143 144 145 146 147 148 149 150 151 152 153 154 155 156 157 158