Ergebnis 1 bis 1 von 1

Thema: Steamboy 2004 Ger-Eng-Jap-Dub Ger-Eng-Frz-Spa-Por-Tur-Sub AC3D ML 1080p BluRay x264 - msd

Dieser Thread wurde noch nicht bewertet. Bewerte ihn doch, wenn er dir gefällt!
  1. #1
    High Quality Anime Avatar von Uploading123
    Registriert seit
    Mar 2013
    Beiträge
    1.009
    Punkte
    44.135
    Errungenschaften:
    TomodachisTagger Amateur25000 ErfahrungspunkteHikikomoriKapitän

    Steamboy 2004 Ger-Eng-Jap-Dub Ger-Eng-Frz-Spa-Por-Tur-Sub AC3D ML 1080p BluRay x264 - msd


    Steamboy 2004 German AC3D ML 1080p BluRay x264 - msd




    London, Ende des 19. Jahrhunderts, in einer fiktiven Vergangenheit: Familie Steam ist eine Wissenschaftsfamilie. Da sie in England nicht die Möglichkeit hatten sich zu etablieren, zogen Vater Loyd und sein Sohn Edwards nach Amerika. Dort erfanden sie drei "Steamkugeln". Diese enthalten den unbändigen Druck des Dampfes, dank extremer Kompression. Doch wie es zu der Zeit ist, sind die Möglichkeiten des Krieges dadurch dem ungeheuren Fortschritt nahe...

    Manchester, 1869 kurz vor der 1. Weltaustellung in London: Sohn Ray lebt mit seinen Geschwistern und der Mutter allein. Gehänselt durch die "Vorgeschichte" seines Vaters und Großvaters, lebt er sein Leben mit Dampferfindungen. Eines Tages bekommt er Post von seinem Großvater. Diese enthält eine der Steamkugeln, doch plötzlich tauchen zwei Gestalten auf und wollen ihm die Kugel wegnehmen. Es beginnt eine atemberaubende Geschichte...


    Größe: 4.43 GB
    Laufzeit: 2 Stunden 6 Minuten
    Auflösung: 1920x1040
    Bitrate: 2625 kbps
    Bittiefe: 8-Bit
    Audio: AC3 5.1 448 kbps (Deutsch & Englisch) // DTS 5.1 1510 kbps (Japanisch)
    Format: mkv
    Codec: x264
    Sprache: Deutsch // Englisch // Japanisch
    Untertitel: Deutsch // Englisch // Französisch // Spanisch // Portugiesisch // Türkisch
    Release Group: msd

    Mediainfo
    Spoiler

    General
    Unique ID : 174046922766362648184834456183841025994 (0x82F037D0B5E15A75812A98109158EFCA)
    Complete name : Steamboy.2004.German.AC3D.ML.1080p.BluRay.x264-msd.mkv
    Format : Matroska
    Format version : Version 2
    File size : 4.44 GiB
    Duration : 2h 6mn
    Overall bit rate : 5 035 Kbps
    Encoded date : UTC 2011-08-29 09:39:05
    Writing application : mkvmerge v4.9.1 ('Ich will') gebaut am Jul 11 2011 23:53:15
    Writing library : libebml v1.2.1 + libmatroska v1.1.1
    Attachment : Yes / Yes / Yes / Yes / Yes / Yes / Yes / Yes

    Video
    ID : 1
    Format : AVC
    Format/Info : Advanced Video Codec
    Format profile : [email protected]
    Format settings, CABAC : Yes
    Format settings, ReFrames : 16 frames
    Codec ID : V_MPEG4/ISO/AVC
    Duration : 2h 6mn
    Bit rate : 2 625 Kbps
    Width : 1 920 pixels
    Height : 1 040 pixels
    Display aspect ratio : 1.85:1
    Frame rate mode : Constant
    Frame rate : 23.976 fps
    Color space : YUV
    Chroma subsampling : 4:2:0
    Bit depth : 8 bits
    Scan type : Progressive
    Bits/(Pixel*Frame) : 0.055
    Stream size : 2.23 GiB (50%)
    Writing library : x264 core 56
    Encoding settings : cabac=1 / ref=16 / deblock=1:0:0 / analyse=0x3:0x133 / me=umh / fpel_cmp=sad / subme=7 / me-prepass=0 / brdo=1 / mixed_ref=1 / me_range=32 / chroma_me=1 / trellis=2 / 8x8dct=1 / cqm=0 / deadzone=21,11 / chroma_qp_offset=0 / threads=1 / nr=0 / decimate=0 / mbaff=0 / bframes=16 / b_pyramid=1 / b_adapt=1 / b_bias=0 / direct=3 / wpredb=1 / bime=1 / keyint=200 / keyint_min=20 / scenecut=40 / rc=2pass / bitrate=2625 / ratetol=1.0 / rceq='blurCplx^(1-qComp)' / qcomp=0.60 / qpmin=15 / qpmax=25 / qpstep=4 / cplxblur=20.0 / qblur=0.5 / ip_ratio=1.30 / pb_ratio=1.25
    Default : Yes
    Forced : No

    Audio #1
    ID : 2
    Format : DTS
    Format/Info : Digital Theater Systems
    Mode : 16
    Format settings, Endianness : Big
    Codec ID : A_DTS
    Duration : 2h 6mn
    Bit rate mode : Constant
    Bit rate : 1 510 Kbps
    Channel count : 6 channels
    Channel positions : Front: L C R, Side: L R, LFE
    Sampling rate : 48.0 KHz
    Bit depth : 24 bits
    Compression mode : Lossy
    Delay relative to video : 64ms
    Stream size : 1.33 GiB (30%)
    Language : Japanese
    Default : No
    Forced : No

    Audio #2
    ID : 3
    Format : AC-3
    Format/Info : Audio Coding 3
    Mode extension : CM (complete main)
    Format settings, Endianness : Big
    Codec ID : A_AC3
    Duration : 2h 6mn
    Bit rate mode : Constant
    Bit rate : 448 Kbps
    Channel count : 6 channels
    Channel positions : Front: L C R, Side: L R, LFE
    Sampling rate : 48.0 KHz
    Bit depth : 16 bits
    Compression mode : Lossy
    Stream size : 404 MiB (9%)
    Language : German
    Default : Yes
    Forced : Yes

    Audio #3
    ID : 4
    Format : AC-3
    Format/Info : Audio Coding 3
    Mode extension : CM (complete main)
    Format settings, Endianness : Big
    Codec ID : A_AC3
    Duration : 2h 6mn
    Bit rate mode : Constant
    Bit rate : 448 Kbps
    Channel count : 6 channels
    Channel positions : Front: L C R, Side: L R, LFE
    Sampling rate : 48.0 KHz
    Bit depth : 16 bits
    Compression mode : Lossy
    Stream size : 404 MiB (9%)
    Language : English
    Default : No
    Forced : No

    Text #1
    ID : 5
    Format : UTF-8
    Codec ID : S_TEXT/UTF8
    Codec ID/Info : UTF-8 Plain Text
    Language : German
    Default : No
    Forced : No

    Text #2
    ID : 6
    Format : ASS
    Codec ID : S_TEXT/ASS
    Codec ID/Info : Advanced Sub Station Alpha
    Compression mode : Lossless
    Language : English
    Default : No
    Forced : No

    Text #3
    ID : 7
    Format : ASS
    Codec ID : S_TEXT/ASS
    Codec ID/Info : Advanced Sub Station Alpha
    Compression mode : Lossless
    Language : French
    Default : No
    Forced : No

    Text #4
    ID : 8
    Format : ASS
    Codec ID : S_TEXT/ASS
    Codec ID/Info : Advanced Sub Station Alpha
    Compression mode : Lossless
    Language : Spanish
    Default : No
    Forced : No

    Text #5
    ID : 9
    Format : ASS
    Codec ID : S_TEXT/ASS
    Codec ID/Info : Advanced Sub Station Alpha
    Compression mode : Lossless
    Language : Portuguese
    Default : No
    Forced : No

    Text #6
    ID : 10
    Format : ASS
    Codec ID : S_TEXT/ASS
    Codec ID/Info : Advanced Sub Station Alpha
    Compression mode : Lossless
    Language : Turkish
    Default : No
    Forced : No


    Mirrors kompatibel

    Geschützter Bereich - Bedanke dich beim Poster, um den Bereich sehen zu können
    Hier erfährst Du wie Du Dich bedanken kannst oder werde jetzt Premium Mitglied ab einer Spende von 5€ und erhalte sofortigen Zugriff auf den Downloadbereich!


    Geschützter Bereich - Bedanke dich beim Poster, um den Bereich sehen zu können
    Hier erfährst Du wie Du Dich bedanken kannst oder werde jetzt Premium Mitglied ab einer Spende von 5€ und erhalte sofortigen Zugriff auf den Downloadbereich!



    Spoiler
    Insanity

    Ihr seht nur Oboom als Mirror, obwohl Uploaded bzw. Share-Online angegeben ist?
    [Links sind nur für registrierte und aktivierte Nutzer sichtbar. Klicke hier um dich zu registrieren.]

  2. 30 Benutzer sagen Danke:

    23muki (10. May 2014),4myAss (31. October 2014),Anathos (27. December 2014),bemike (14. March 2016),Dexter121 (2. March 2015),Flyer (27. April 2014),fonomonochan (13. December 2014),Garrus (10. January 2015),Grave Baker (28. December 2014),Ham_inactive (19. January 2015),herrwefer (16. September 2015),inzsome (31. May 2014),Jinnay (26. April 2014),kadaj93 (18. May 2014),KaneTheMagic (7. October 2014),midnighter (27. February 2015),napalmklaus (23. June 2014),Nillus (18. May 2014),Paulus (24. August 2014),Psycho-Shizuka (9. July 2015),Roy_Coleman (29. April 2014),Sairenji (25. April 2015),Shugyosha (27. April 2014),SIMarcel (24. April 2015),Tai1988 (1. August 2015),Tarlysin (31. January 2015),Tidus18 (27. February 2015),Zaisen (28. June 2014),zeroscorp (2. May 2014)

Lesezeichen

Berechtigungen

  • Neue Themen erstellen: Nein
  • Themen beantworten: Nein
  • Anhänge hochladen: Nein
  • Beiträge bearbeiten: Nein
  •  

1 2 3 4 5 6 7 8 9 10 11 12 13 14 15 16 17 18 19 20 21 22 23 24 25 26 27 28 29 30 31 32 33 34 35 36 37 38 39 40 41 42 43 44 45 46 47 48 49 50 51 52 53 54 55 56 57 58 59 60 61 62 63 64 65 66 67 68 69 70 71 72 73 74 75 76 77 78 79 80 81 82 83 84 85 86 87 88 89 90 91 92 93 94 95 96 97 98 99 100 101 102 103 104 105 106 107 108 109 110 111 112 113 114 115 116 117 118 119 120 121 122 123 124 125 126 127 128 129 130 131 132 133 134 135 136 137 138 139 140 141 142 143 144 145 146 147 148 149 150 151 152 153 154 155 156 157 158