Ergebnis 1 bis 1 von 1

Thema: Summer Wars (2009) [Ger-Jap-Dub][DTS-HD MA][Ger-Sub][1080p][Remux][Blu-ray]-SantaKlaus

Dieser Thread wurde noch nicht bewertet. Bewerte ihn doch, wenn er dir gefällt!
  1. #1
    Kleiner Experte Avatar von SantaKlaus
    Registriert seit
    Feb 2014
    Beiträge
    103
    Punkte
    5.867
    Errungenschaften:
    Hikikomori5000 Erfahrungspunkte

    Summer Wars (2009) [Ger-Jap-Dub][DTS-HD MA][Ger-Sub][1080p][Remux][Blu-ray]-SantaKlaus

    Summer Wars
    サマーウォーズ






    Kurzbeschreibung:
    Kenji Koiso ist ein Highschool Student, der zwar gut in Mathe ist, aber nicht im Umgang mit anderen Menschen. Während der Sommerferien wird Kenji von seinem Senpai Natsuki Shinohara in ihre Heimatstadt auf dem Land eingeladen. Kurz nach seiner Ankunft beginnt sich weltweit die Realität mit einer anderen Welt namens Oz zu überschneiden, woraufhin sich Natsukis zahlreiche Familienmitglieder unter der Leitung ihrer energiegeladenen 90-jährigen Großmutter aufmachen, die Menschheit zu retten.


    Format: 16:9
    Auflösung: 1920x1080
    Source: Blu-ray
    Codec: AVC
    Hoster: Share-Online
    Ton:
    Deutsch DTS-HD MA 5.1
    Japanisch DTS-HD MA 5.1

    Spoiler
    Code:
    General
    Unique ID                   : 141873055918509656644912674269896855645 (0x6ABBC1B517F2C42299C1DC841367505D)
    Complete name               : Summer Wars (2009).mkv
    Format                      : Matroska
    Format version              : Version 2
    File size                   : 21.1 GiB
    Duration                    : 1h 54mn
    Overall bit rate mode       : Variable
    Overall bit rate            : 26.4 Mbps
    Encoded date                : UTC 2016-03-14 01:56:36
    Writing application         : MakeMKV v1.9.9 win(x64-release)
    Writing library             : libmakemkv v1.9.9 (1.3.3/1.4.4) win(x64-release)
    Original source medium      : Blu-ray
    
    Video
    ID                          : 1
    ID in the original source m : 4113 (0x1011)
    Format                      : AVC
    Format/Info                 : Advanced Video Codec
    Format profile              : [email protected]
    Format settings, CABAC      : Yes
    Format settings, ReFrames   : 4 frames
    Codec ID                    : V_MPEG4/ISO/AVC
    Duration                    : 1h 54mn
    Bit rate mode               : Variable
    Bit rate                    : 21.7 Mbps
    Maximum bit rate            : 26.0 Mbps
    Width                       : 1 920 pixels
    Height                      : 1 080 pixels
    Display aspect ratio        : 16:9
    Frame rate mode             : Constant
    Frame rate                  : 23.976 (24000/1001) fps
    Standard                    : NTSC
    Color space                 : YUV
    Chroma subsampling          : 4:2:0
    Bit depth                   : 8 bits
    Scan type                   : Progressive
    Bits/(Pixel*Frame)          : 0.437
    Stream size                 : 17.3 GiB (82%)
    Language                    : Japanese
    Default                     : Yes
    Forced                      : No
    Color range                 : Limited
    Color primaries             : BT.709
    Transfer characteristics    : BT.709
    Matrix coefficients         : BT.709
    
    Audio #1
    ID                          : 2
    ID in the original source m : 4352 (0x1100)
    Format                      : DTS
    Format/Info                 : Digital Theater Systems
    Format profile              : MA / Core
    Mode                        : 16
    Format settings, Endianness : Big
    Codec ID                    : A_DTS
    Duration                    : 1h 54mn
    Bit rate mode               : Variable / Constant
    Bit rate                    : 2 302 Kbps / 1 509 Kbps
    Channel(s)                  : 6 channels
    Channel positions           : Front: L C R, Side: L R, LFE
    Sampling rate               : 48.0 KHz
    Frame rate                  : 93.750 fps (512 spf)
    Bit depth                   : 16 bits
    Compression mode            : Lossless / Lossy
    Stream size                 : 1.84 GiB (9%)
    Language                    : German
    Default                     : Yes
    Forced                      : No
    
    Audio #2
    ID                          : 3
    ID in the original source m : 4354 (0x1102)
    Format                      : DTS
    Format/Info                 : Digital Theater Systems
    Format profile              : MA / Core
    Mode                        : 16
    Format settings, Endianness : Big
    Codec ID                    : A_DTS
    Duration                    : 1h 54mn
    Bit rate mode               : Variable / Constant
    Bit rate                    : 2 350 Kbps / 1 509 Kbps
    Channel(s)                  : 6 channels
    Channel positions           : Front: L C R, Side: L R, LFE
    Sampling rate               : 48.0 KHz
    Frame rate                  : 93.750 fps (512 spf)
    Bit depth                   : 16 bits
    Compression mode            : Lossless / Lossy
    Stream size                 : 1.87 GiB (9%)
    Language                    : Japanese
    Default                     : No
    Forced                      : No
    
    Text #1
    ID                          : 6
    ID in the original source m : 4608 (0x1200)
    Format                      : PGS
    Codec ID                    : S_HDMV/PGS
    Codec ID/Info               : Picture based subtitle format used on BDs/HD-DVDs
    Duration                    : 1h 51mn
    Bit rate                    : 36.0 Kbps
    Count of elements           : 3138
    Stream size                 : 28.8 MiB (0%)
    Language                    : German
    Default                     : No
    Forced                      : No
    
    Text #2
    ID                          : 7
    ID in the original source m : 4614 (0x1206)
    Format                      : PGS
    Codec ID                    : S_HDMV/PGS
    Codec ID/Info               : Picture based subtitle format used on BDs/HD-DVDs
    Duration                    : 1h 48mn
    Bit rate                    : 2 670 bps
    Count of elements           : 178
    Stream size                 : 2.08 MiB (0%)
    Language                    : German
    Default                     : Yes
    Forced                      : Yes
    
    Menu
    00:00:00.000                : en:Chapter 01
    00:00:54.846                : en:Chapter 02
    00:13:14.794                : en:Chapter 03
    00:24:41.480                : en:Chapter 04
    00:33:59.746                : en:Chapter 05
    00:47:43.110                : en:Chapter 06
    00:57:05.380                : en:Chapter 07
    01:10:04.200                : en:Chapter 08
    01:21:33.471                : en:Chapter 09
    01:30:56.868                : en:Chapter 10
    01:40:32.026                : en:Chapter 11
    01:48:58.532                : en:Chapter 12



    Geschützter Bereich - Bedanke dich beim Poster, um den Bereich sehen zu können
    Hier erfährst Du wie Du Dich bedanken kannst oder werde jetzt Premium Mitglied ab einer Spende von 5€ und erhalte sofortigen Zugriff auf den Downloadbereich!

  2. 35 Benutzer sagen Danke:

    Akatsuki (11. August 2016),anekai (3. June 2016),Baschti1989 (6. August 2016),Bullet91 (4. August 2016),Cloud9019 (15. March 2016),Conopas (15. March 2016),dacheff (28. March 2016),darksera (12. May 2016),demonac (18. August 2016),Denetonne (15. March 2016),Donritzu (6. May 2016),Expert2506 (25. May 2016),falkenauge11 (8. July 2016),Ignasum (24. March 2016),ikkyyy (21. September 2016),Invader_Zim (20. March 2016),JoleenLovesMina (31. August 2016),Lugiano (6. June 2016),Magikarp (19. September 2016),mar3el (15. August 2016),Marcurion (15. March 2016),McFly4711 (2. October 2016),mg2000 (9. July 2016),midnighter (2. June 2016),Mr.Shit (2. October 2016),nicole832 (27. April 2016),norby (17. March 2016),prinzvegeta (31. May 2016),Repcak (11. April 2016),SenatorPro (30. April 2016),Smery (17. May 2016),Supersick (21. August 2016),Toad (31. July 2016),videoseven (14. July 2016),zimbo201174 (15. March 2016)

Lesezeichen

Berechtigungen

  • Neue Themen erstellen: Nein
  • Themen beantworten: Nein
  • Anhänge hochladen: Nein
  • Beiträge bearbeiten: Nein
  •  

1 2 3 4 5 6 7 8 9 10 11 12 13 14 15 16 17 18 19 20 21 22 23 24 25 26 27 28 29 30 31 32 33 34 35 36 37 38 39 40 41 42 43 44 45 46 47 48 49 50 51 52 53 54 55 56 57 58 59 60 61 62 63 64 65 66 67 68 69 70 71 72 73 74 75 76 77 78 79 80 81 82 83 84 85 86 87 88 89 90 91 92 93 94 95 96 97 98 99 100 101 102 103 104 105 106 107 108 109 110 111 112 113 114 115 116 117 118 119 120 121 122 123 124 125 126 127 128 129 130 131 132 133 134 135 136 137 138 139 140 141 142 143 144 145 146 147 148 149 150 151 152 153 154 155 156 157 158