Ergebnis 1 bis 1 von 1

Thema: Tales of Vesperia - The First Strike German AC3 DL 1080p BluRay x264 - AST4u

Dieser Thread wurde noch nicht bewertet. Bewerte ihn doch, wenn er dir gefällt!
  1. #1
    High Quality Anime Avatar von Uploading123
    Registriert seit
    Mar 2013
    Beiträge
    1.009
    Punkte
    44.135
    Errungenschaften:
    TomodachisTagger Amateur25000 ErfahrungspunkteHikikomoriKapitän

    Tales of Vesperia - The First Strike German AC3 DL 1080p BluRay x264 - AST4u


    Tales of Vesperia - The First Strike German AC3 DL 1080p BluRay x264 - AST4u




    Basierend auf dem gleichnamigen und erfolgreichen Videospiel nimmt TALES OF VESPERIA den Zuschauer mit auf eine Reise in eine Welt, die fern aller Vorstellungskraft liegt. Produziert von Production I.G (GHOST IN THE SHELL, BLOOD: THE LAST VAMPIRE) präsentiert sich TALES OF VESPERIA als ein optischer und inhaltlicher Genuss. Pure und überschwängliche Fantasie wurde schon lange nicht mehr so überzeugend umgesetzt wie in TALES OF VESPERIA. TALES OF VESPERIA ist ein Hit. Ein moderner Anime-Klassiker, den man sich nicht entgehen lassen darf.

    Terca Lumireis ist eine Welt des Fortschritts und des Wohlstandes. Es herrscht Frieden auf Terca Lumireis, in der die Menschen sich einer mächtigen Substanz namens Aer bedienen. Yuri Lowell und Flynn Scifo, die beide neu dem Nylen Corps beigetreten sind, erhalten eines Tages den Auftrag in der Nähe der Stadt Shizontania einem ungewöhnlich großen Vorkommen von Aer nachzugehen. Beide ahnen dabei nicht, dass dieser Auftrag für sie der Beginn eines großen Abenteuers ist, bei dem nichts weniger als das Schicksal von Terca Lumireis auf dem Spiel steht.

    Vor zehn Jahren endete der Krieg zwischen Dämonen und Menschen mit einem brüchigen Waffenstillstand, der von den Monstern bereits wiederholt gebrochen wurde. Nun mehren sich Zeichen einer kommenden Dämoneninvasion und versetzen die mit deren Abwehr betraute Rittergarde in einige Aufregung. Die Sache kommt zu einem ungünstigen Zeitpunkt, erweist sich doch das Kaiserhaus als schwach und wankelmütig. Die Jungritter Flynn und Yuri aber werfen ihre Animositäten zumindest vorübergehend über Bord und treten dem Gegner entschlossen entgegen.


    Größe: 8,38 GB
    Laufzeit: 1 Stunde 50 Minuten
    Auflösung: 1920x1080
    Bittiefe: 8-Bit
    Audio: AC3
    Format: mkv
    Sprache: Deutsch // Japanisch
    Untertitel: Deutsch Forced // Deutsch
    Releasegroup: AST4u

    Mediainfo
    Spoiler

    General
    Unique ID : 254612463509103707241896361774957244862 (0xBF8C93A71C07CF919B7A9A063A94B1BE)
    Complete name : Tales.of.Vesperia-The.First.Strike.German.AC3.DL.1080p.BluRay.x264-AST4u\Tales.of.Vesperia-The.First.Strike.German.AC3.DL.1080p.BluRay.x264-AST4u.mkv
    Format : Matroska
    Format version : Version 2
    File size : 8.38 GiB
    Duration : 1h 50mn
    Overall bit rate mode : Variable
    Overall bit rate : 10.9 Mbps
    Movie name : Tales of Vesperia.Title1002.BlurayRip
    Encoded date : UTC 2014-01-28 06:15:02
    Writing application : DVDFab
    Writing library : libebml v0.7.8 + libmatroska v0.8.1

    Video
    ID : 1
    Format : AVC
    Format/Info : Advanced Video Codec
    Format profile : [email protected]
    Format settings, CABAC : Yes
    Format settings, ReFrames : 2 frames
    Codec ID : V_MPEG4/ISO/AVC
    Duration : 1h 50mn
    Bit rate mode : Variable
    Bit rate : 9 744 Kbps
    Maximum bit rate : 15.0 Mbps
    Width : 1 920 pixels
    Height : 1 080 pixels
    Display aspect ratio : 16:9
    Frame rate mode : Constant
    Frame rate : 23.976 fps
    Color space : YUV
    Chroma subsampling : 4:2:0
    Bit depth : 8 bits
    Scan type : Progressive
    Bits/(Pixel*Frame) : 0.196
    Stream size : 7.53 GiB (90%)
    Default : Yes
    Forced : No

    Audio #1
    ID : 2
    Format : AC-3
    Format/Info : Audio Coding 3
    Mode extension : CM (complete main)
    Format settings, Endianness : Big
    Codec ID : A_AC3
    Duration : 1h 50mn
    Bit rate mode : Constant
    Bit rate : 448 Kbps
    Channel count : 6 channels
    Channel positions : Front: L C R, Side: L R, LFE
    Sampling rate : 48.0 KHz
    Bit depth : 16 bits
    Compression mode : Lossy
    Stream size : 354 MiB (4%)
    Language : German
    Default : Yes
    Forced : No

    Audio #2
    ID : 3
    Format : AC-3
    Format/Info : Audio Coding 3
    Mode extension : CM (complete main)
    Format settings, Endianness : Big
    Codec ID : A_AC3
    Duration : 1h 50mn
    Bit rate mode : Constant
    Bit rate : 448 Kbps
    Channel count : 6 channels
    Channel positions : Front: L C R, Side: L R, LFE
    Sampling rate : 48.0 KHz
    Bit depth : 16 bits
    Compression mode : Lossy
    Stream size : 354 MiB (4%)
    Language : Japanese
    Default : No
    Forced : No

    Text #1
    ID : 4
    Format : VobSub
    Muxing mode : zlib
    Codec ID : S_VOBSUB
    Codec ID/Info : The same subtitle format used on DVDs
    Language : German
    Default : Yes
    Forced : No

    Text #2
    ID : 5
    Format : VobSub
    Muxing mode : zlib
    Codec ID : S_VOBSUB
    Codec ID/Info : The same subtitle format used on DVDs
    Language : German
    Default : No
    Forced : No

    Menu
    00:00:00.000 : en:(01)00:00:00:000
    00:09:41.247 : en:(02)00:09:41:247
    00:18:25.938 : en:(03)00:18:25:938
    00:28:46.975 : en:(04)00:28:46:975
    00:38:10.913 : en:(05)00:38:10:913
    00:49:16.912 : en:(06)00:49:16:912
    00:59:50.962 : en:(07)00:59:50:962
    01:09:13.899 : en:(08)01:09:13:899
    01:20:07.928 : en:(09)01:20:07:928
    01:32:12.944 : en:(10)01:32:12:944
    01:42:40.946 : en:(11)01:42:40:946
    01:45:27.904 : en:(12)01:45:27:904


    Mirrors kompatibel

    Geschützter Bereich - Bedanke dich beim Poster, um den Bereich sehen zu können
    Hier erfährst Du wie Du Dich bedanken kannst oder werde jetzt Premium Mitglied ab einer Spende von 5€ und erhalte sofortigen Zugriff auf den Downloadbereich!


    Geschützter Bereich - Bedanke dich beim Poster, um den Bereich sehen zu können
    Hier erfährst Du wie Du Dich bedanken kannst oder werde jetzt Premium Mitglied ab einer Spende von 5€ und erhalte sofortigen Zugriff auf den Downloadbereich!



    Spoiler
    Insanity

    Geändert von Uploading123 (22. February 2014 um 14:40 Uhr)
    Ihr seht nur Oboom als Mirror, obwohl Uploaded bzw. Share-Online angegeben ist?
    [Links sind nur für registrierte und aktivierte Nutzer sichtbar. Klicke hier um dich zu registrieren.]

  2. 49 Benutzer sagen Danke:

    Ace360 (6. August 2015),Anathos (27. December 2014),andyb90 (12. February 2016),Axel87 (25. March 2016),BlackGoldSaw (5. August 2014),BlackPhoenix (16. November 2014),BlackReaper (27. July 2014),Bloodyair (13. April 2014),Callisto (22. February 2014),DarkChaos (25. February 2015),Deflamera (11. March 2014),dreambird1973 (25. June 2016),E4GLE (31. August 2014),exterminus (22. February 2014),Ezekiel2517 (15. February 2016),fichtlwichtl (24. August 2014),flippi86 (16. March 2014),Gamerforce360 (14. January 2015),Grave Baker (27. December 2014),Griever (20. December 2015),HorrorKaiser (22. February 2014),Keniji (29. July 2014),KnutHunter (8. January 2015),kyrahiko_inactive (14. March 2014),LawMugen (10. March 2015),Mathonwy (19. July 2015),Miauundso (24. August 2015),midnighter (23. January 2015),Mr.Classic (7. May 2015),mytamorph (6. August 2015),Paraxamos (18. September 2014),Paulus (23. December 2014),player15996 (25. July 2014),Rakyr_inactive (20. July 2014),Raziel (1. March 2014),remiel (6. July 2014),Roxas-chan (13. June 2014),Roy_Coleman (5. March 2014),SFK_inactive (29. July 2014),Shadowa (6. August 2015),sunfun16 (29. August 2014),Tai1988 (26. July 2015),Taurus (16. April 2014),Tenma90 (4. January 2015),tigerhai (21. April 2016),volker027 (29. December 2015),Zaisen (3. April 2014),Zarroc1 (13. January 2016),Zumay (18. August 2014)

Lesezeichen

Berechtigungen

  • Neue Themen erstellen: Nein
  • Themen beantworten: Nein
  • Anhänge hochladen: Nein
  • Beiträge bearbeiten: Nein
  •  

1 2 3 4 5 6 7 8 9 10 11 12 13 14 15 16 17 18 19 20 21 22 23 24 25 26 27 28 29 30 31 32 33 34 35 36 37 38 39 40 41 42 43 44 45 46 47 48 49 50 51 52 53 54 55 56 57 58 59 60 61 62 63 64 65 66 67 68 69 70 71 72 73 74 75 76 77 78 79 80 81 82 83 84 85 86 87 88 89 90 91 92 93 94 95 96 97 98 99 100 101 102 103 104 105 106 107 108 109 110 111 112 113 114 115 116 117 118 119 120 121 122 123 124 125 126 127 128 129 130 131 132 133 134 135 136 137 138 139 140 141 142 143 144 145 146 147 148 149 150 151 152 153 154 155 156 157 158