Ergebnis 1 bis 4 von 4

Thema: Tekken: Blood Vengeance [GerDub][DVDRip]

Dieser Thread wurde noch nicht bewertet. Bewerte ihn doch, wenn er dir gefällt!
  1. #1
    Erfahrener Otaku Avatar von ohlong
    Registriert seit
    Sep 2013
    Ort
    Im Herzen Deutschlands
    Beiträge
    151
    Punkte
    5.807
    Errungenschaften:
    TomodachisTagger Profi5000 ErfahrungspunkteHikikomori

    Tekken: Blood Vengeance [GerDub][DVDRip]



    Tekken: Blood Vengeance
    鉄拳 Blood Vengeance





    Kurzbeschreibung
    Der im komplexen Tekken-Universum angesiedelte Film Tekken: Blood Vengeance erzählt die Geschichte der High School Schülerin und erfahrenen Kampfsportlerin Xiaoyu Ling. Diese wird von der G Corporation beauftragt, eine internationale Schule in Kyoto zu infiltrieren um Informationen über den mysteriösen Schüler Shin Kamiya zu sammeln. Bevor Xiaoyu Ling die Ermittlungen aufnehmen kann, wird Shin jedoch von einem unbekannten Angreifer entführt. Bei der Suche nach Hinweisen um Shin zu retten, lernt Xiaoyu schnell die furchteinflößenden Schattenseiten der Firma Mishima Zaibatsu kennen und begibt sich so auf die Spur von Jin Kazamas, Kazuya Mishimas und Heihachi Mishimas blutiger Verschwörung.

    Sprache: Deutsch
    Untertitel: Deutsch (Forced/Hardsub)
    Genre: Fighting-Shounen, Gegenwart, Action,
    CG-Anime, Kampfsport, Komödie, Martial Arts
    Source: DVD
    Format: avi
    Video-Codec: Xvid
    Resolution: 656x368
    Größe: 1,17GB
    Releaser: stars
    Hoster: Share-Online, Uploaded


    Technische Informationen
    Spoiler
    Code:
    Format                                   : AVI
    Format/Info                              : Audio Video Interleave
    File size                                : 1.18 GiB
    Duration                                 : 1h 28mn
    Overall bit rate                         : 1 905 Kbps
    Writing application                      : VirtualDubMod 1.5.10.2 (build 2540/release)
    Writing library                          : VirtualDubMod build 2540/release
    
    Video
    ID                                       : 0
    Format                                   : MPEG-4 Visual
    Format profile                           : Advanced [email protected]
    Format settings, BVOP                    : 2
    Format settings, QPel                    : No
    Format settings, GMC                     : No warppoints
    Format settings, Matrix                  : Default (H.263)
    Codec ID                                 : XVID
    Codec ID/Hint                            : XviD
    Duration                                 : 1h 28mn
    Bit rate                                 : 994 Kbps
    Width                                    : 656 pixels
    Height                                   : 368 pixels
    Display aspect ratio                     : 16:9
    Frame rate                               : 25.000 fps
    Color space                              : YUV
    Chroma subsampling                       : 4:2:0
    Bit depth                                : 8 bits
    Scan type                                : Progressive
    Compression mode                         : Lossy
    Bits/(Pixel*Frame)                       : 0.165
    Stream size                              : 629 MiB (52%)
    Writing library                          : XviD 61
    
    Audio #1
    ID                                       : 1
    Format                                   : AC-3
    Format/Info                              : Audio Coding 3
    Mode extension                           : CM (complete main)
    Format settings, Endianness              : Big
    Codec ID                                 : 2000
    Duration                                 : 1h 28mn
    Bit rate mode                            : Constant
    Bit rate                                 : 448 Kbps
    Channel(s)                               : 6 channels
    Channel positions                        : Front: L C R, Side: L R, LFE
    Sampling rate                            : 48.0 KHz
    Bit depth                                : 16 bits
    Compression mode                         : Lossy
    Stream size                              : 283 MiB (24%)
    Alignment                                : Split accross interleaves
    Interleave, duration                     : 40 ms (1.00 video frame)
    Interleave, preload duration             : 500 ms
    
    Audio #2
    ID                                       : 2
    Format                                   : AC-3
    Format/Info                              : Audio Coding 3
    Mode extension                           : CM (complete main)
    Format settings, Endianness              : Big
    Codec ID                                 : 2000
    Duration                                 : 1h 28mn
    Bit rate mode                            : Constant
    Bit rate                                 : 448 Kbps
    Channel(s)                               : 6 channels
    Channel positions                        : Front: L C R, Side: L R, LFE
    Sampling rate                            : 48.0 KHz
    Bit depth                                : 16 bits
    Compression mode                         : Lossy
    Stream size                              : 283 MiB (24%)
    Alignment                                : Split accross interleaves
    Interleave, duration                     : 40 ms (1.00 video frame)
    Interleave, preload duration             : 500 ms



    Password
    [email protected]

    Geschützter Bereich - Bedanke dich beim Poster, um den Bereich sehen zu können
    Hier erfährst Du wie Du Dich bedanken kannst oder werde jetzt Premium Mitglied ab einer Spende von 5€ und erhalte sofortigen Zugriff auf den Downloadbereich!

    Geändert von ohlong (12. January 2016 um 16:25 Uhr)

  2. 29 Benutzer sagen Danke:

    ■DarknessIM■ (4. February 2014),acer25 (28. December 2014),Akio (2. November 2015),bloodyfloh (3. September 2015),boemb80_inactive (27. April 2014),cooliero (24. August 2015),DeathBeast88 (16. January 2014),dreambird1973 (10. November 2013),EddyHH (17. February 2014),egon1212 (2. September 2015),freakwatcher (23. September 2015),Gatti1983 (12. March 2015),Golff22 (19. December 2013),Herasla22 (13. October 2014),Heroic (12. July 2014),kilosierra (11. March 2014),kybant (15. March 2016),Lautrerbomber (29. December 2014),Lyres (20. October 2014),nanaki88 (26. January 2014),Over (12. September 2015),paulito.1 (18. December 2013),sami001 (11. August 2014),sebigbos (5. May 2015),Shadow7525 (18. February 2015),sunfun16 (29. August 2014),SwaggerMan (18. April 2015),Vailkonen (7. February 2015),Zumay (19. August 2014)

  3. #2
    Erfahrener Otaku Avatar von ohlong
    Registriert seit
    Sep 2013
    Ort
    Im Herzen Deutschlands
    Beiträge
    151
    Punkte
    5.807
    Errungenschaften:
    TomodachisTagger Profi5000 ErfahrungspunkteHikikomori

    AW: Tekken: Blood Vengeance [GerDub][DVDRip]

    Update: Reup auf Share-Online

  4. #3
    Erfahrener Otaku Avatar von ohlong
    Registriert seit
    Sep 2013
    Ort
    Im Herzen Deutschlands
    Beiträge
    151
    Punkte
    5.807
    Errungenschaften:
    TomodachisTagger Profi5000 ErfahrungspunkteHikikomori

    AW: Tekken: Blood Vengeance [GerDub][DVDRip]

    Reup auf Share-Online & Uploaded

  5. #4
    Erfahrener Otaku Avatar von ohlong
    Registriert seit
    Sep 2013
    Ort
    Im Herzen Deutschlands
    Beiträge
    151
    Punkte
    5.807
    Errungenschaften:
    TomodachisTagger Profi5000 ErfahrungspunkteHikikomori

    AW: Tekken: Blood Vengeance [GerDub][DVDRip]

    Reup auf Share-Online & Uploaded

Stichworte

Lesezeichen

Berechtigungen

  • Neue Themen erstellen: Nein
  • Themen beantworten: Nein
  • Anhänge hochladen: Nein
  • Beiträge bearbeiten: Nein
  •  

1 2 3 4 5 6 7 8 9 10 11 12 13 14 15 16 17 18 19 20 21 22 23 24 25 26 27 28 29 30 31 32 33 34 35 36 37 38 39 40 41 42 43 44 45 46 47 48 49 50 51 52 53 54 55 56 57 58 59 60 61 62 63 64 65 66 67 68 69 70 71 72 73 74 75 76 77 78 79 80 81 82 83 84 85 86 87 88 89 90 91 92 93 94 95 96 97 98 99 100 101 102 103 104 105 106 107 108 109 110 111 112 113 114 115 116 117 118 119 120 121 122 123 124 125 126 127 128 129 130 131 132 133 134 135 136 137 138 139 140 141 142 143 144 145 146 147 148 149 150 151 152 153 154 155 156 157 158