Ergebnis 1 bis 1 von 1

Thema: Tränen der Erinnerung: Only Yesterday (1991) + Extras [Ger-Jap-Dub][DTS-HD MA][Ger-Sub][1080p][BluRay][Remux]-SantaKlaus

Dieser Thread wurde noch nicht bewertet. Bewerte ihn doch, wenn er dir gefällt!
  1. #1
    Kleiner Experte Avatar von SantaKlaus
    Registriert seit
    Feb 2014
    Beiträge
    103
    Punkte
    5.867
    Errungenschaften:
    Hikikomori5000 Erfahrungspunkte

    Tränen der Erinnerung: Only Yesterday (1991) + Extras [Ger-Jap-Dub][DTS-HD MA][Ger-Sub][1080p][BluRay][Remux]-SantaKlaus

    Tränen der Erinnerung: Only Yesterday
    Omoide Poro Poro
    おもひでぽろぽろ






    Kurzbeschreibung:
    Taeko Okajima ist eine typische Büroangestellte in einem großen Unternehmen in einer großen Stadt. Als sie Urlaub auf dem Land in der Yamagata Präfektur - im Heimatort ihres Schwagers - macht, erinnert sie sich während ihrer Reise an Ereignisse, als sie in der fünften Klasse war. Während ihres Aufenthalts in Yamagata arbeitet sie hart, aber glücklich als Bäuerin und ist dabei von ihren Verwandten und anderen Dorfbewohnern umgeben, was dazu führt, dass sie sich an weitere Dinge erinnern muss. Ihre Gastfreundschaft sorgt dafür, dass Takeo ihre eigene Lebensart noch einmal überdenken muss.

    Der Film Tränen der Erinnerung - Only Yesterday wurde unter der Regie von Isao Takahata produziert, der bereits bei anderen Filmen wie Die letzten Glühwürmchen oder Serien wie Heidi Regie führte.


    Format: 16:9
    Auflösung: 1080p
    Source: Blu-ray
    Codec: AVC
    Hoster: Share-Online
    Ton:
    Deutsch DTS-HD MA 2.0
    Japanisch DTS-HD MA 2.0

    Dateiliste
    Spoiler
    Code:
    Tränen der Erinnerung - Only Yesterday (1991)/Tränen der Erinnerung - Only Yesterday (1991).mkv
    Tränen der Erinnerung - Only Yesterday (1991)/Behind The Scenes/Original Making-of.mkv
    Tränen der Erinnerung - Only Yesterday (1991)/Scenes/BD Menu.mkv
    Tränen der Erinnerung - Only Yesterday (1991)/Scenes/Storyboards zum kompletten Film.mkv
    Tränen der Erinnerung - Only Yesterday (1991)/Trailers/Original-Trailer 1.mkv
    Tränen der Erinnerung - Only Yesterday (1991)/Trailers/Original-Trailer 2.mkv
    Tränen der Erinnerung - Only Yesterday (1991)/Trailers/Original-Trailer 3.mkv
    Tränen der Erinnerung - Only Yesterday (1991)/Trailers/Original-Trailer 4.mkv


    MediaInfo
    Spoiler
    Code:
    General
    Unique ID                   : 223874811511918578585262009121058305778 (0xA86CB86772966BEE0BAF9B11A35BB6F2)
    Complete name               : Tränen der Erinnerung - Only Yesterday (1991).mkv
    Format                      : Matroska
    Format version              : Version 2
    File size                   : 24.2 GiB
    Duration                    : 1h 58mn
    Overall bit rate mode       : Variable
    Overall bit rate            : 29.2 Mbps
    Movie name                  : Only Yesterday
    Encoded date                : UTC 2016-02-10 07:34:29
    Writing application         : MakeMKV v1.9.9 win(x64-release)
    Writing library             : libmakemkv v1.9.9 (1.3.3/1.4.4) win(x64-release)
    Original source medium      : Blu-ray
    
    Video
    ID                          : 1
    ID in the original source m : 4113 (0x1011)
    Format                      : AVC
    Format/Info                 : Advanced Video Codec
    Format profile              : [email protected]
    Format settings, CABAC      : Yes
    Format settings, ReFrames   : 4 frames
    Codec ID                    : V_MPEG4/ISO/AVC
    Duration                    : 1h 58mn
    Bit rate mode               : Variable
    Bit rate                    : 25.9 Mbps
    Maximum bit rate            : 38.0 Mbps
    Width                       : 1 920 pixels
    Height                      : 1 080 pixels
    Display aspect ratio        : 16:9
    Frame rate mode             : Constant
    Frame rate                  : 23.976 (24000/1001) fps
    Color space                 : YUV
    Chroma subsampling          : 4:2:0
    Bit depth                   : 8 bits
    Scan type                   : Progressive
    Bits/(Pixel*Frame)          : 0.521
    Stream size                 : 21.5 GiB (89%)
    Language                    : Japanese
    Default                     : Yes
    Forced                      : No
    
    Audio #1
    ID                          : 2
    ID in the original source m : 4352 (0x1100)
    Format                      : DTS
    Format/Info                 : Digital Theater Systems
    Format profile              : MA / Core
    Mode                        : 16
    Format settings, Endianness : Big
    Codec ID                    : A_DTS
    Duration                    : 1h 58mn
    Bit rate mode               : Variable / Constant
    Bit rate                    : 1 610 Kbps / 768 Kbps
    Channel(s)                  : 2 channels
    Channel positions           : Front: L R
    Sampling rate               : 48.0 KHz
    Frame rate                  : 93.750 fps (512 spf)
    Bit depth                   : 24 bits
    Compression mode            : Lossless / Lossy
    Stream size                 : 1.34 GiB (6%)
    Title                       : Stereo
    Language                    : German
    Default                     : Yes
    Forced                      : No
    
    Audio #2
    ID                          : 3
    ID in the original source m : 4353 (0x1101)
    Format                      : DTS
    Format/Info                 : Digital Theater Systems
    Format profile              : MA / Core
    Mode                        : 16
    Format settings, Endianness : Big
    Codec ID                    : A_DTS
    Duration                    : 1h 58mn
    Bit rate mode               : Variable / Constant
    Bit rate                    : 1 626 Kbps / 768 Kbps
    Channel(s)                  : 2 channels
    Channel positions           : Front: L R
    Sampling rate               : 48.0 KHz
    Frame rate                  : 93.750 fps (512 spf)
    Bit depth                   : 24 bits
    Compression mode            : Lossless / Lossy
    Stream size                 : 1.35 GiB (6%)
    Title                       : Stereo
    Language                    : Japanese
    Default                     : No
    Forced                      : No
    
    Text #1
    ID                          : 5
    ID in the original source m : 4609 (0x1201)
    Format                      : PGS
    Codec ID                    : S_HDMV/PGS
    Codec ID/Info               : Picture based subtitle format used on BDs/HD-DVDs
    Duration                    : 1h 32mn
    Bit rate                    : 590 bps
    Count of elements           : 32
    Stream size                 : 399 KiB (0%)
    Language                    : German
    Default                     : Yes
    Forced                      : Yes
    
    Text #2
    ID                          : 6
    ID in the original source m : 4608 (0x1200)
    Format                      : PGS
    Codec ID                    : S_HDMV/PGS
    Codec ID/Info               : Picture based subtitle format used on BDs/HD-DVDs
    Duration                    : 1h 53mn
    Bit rate                    : 38.9 Kbps
    Count of elements           : 2284
    Stream size                 : 31.6 MiB (0%)
    Language                    : German
    Default                     : No
    Forced                      : No
    
    Text #3
    ID                          : 7
    ID in the original source m : 4609 (0x1201)
    Format                      : PGS
    Codec ID                    : S_HDMV/PGS
    Codec ID/Info               : Picture based subtitle format used on BDs/HD-DVDs
    Duration                    : 1h 32mn
    Bit rate                    : 590 bps
    Count of elements           : 32
    Stream size                 : 399 KiB (0%)
    Language                    : German
    Default                     : No
    Forced                      : No
    
    Menu
    00:00:00.000                : en:Chapter 01
    00:01:49.109                : en:Chapter 02
    00:07:05.967                : en:Chapter 03
    00:13:00.654                : en:Chapter 04
    00:18:34.196                : en:Chapter 05
    00:28:49.144                : en:Chapter 06
    00:38:08.035                : en:Chapter 07
    00:48:02.921                : en:Chapter 08
    00:56:23.880                : en:Chapter 09
    01:05:10.072                : en:Chapter 10
    01:14:30.132                : en:Chapter 11
    01:20:58.228                : en:Chapter 12
    01:35:09.578                : en:Chapter 13
    01:42:45.534                : en:Chapter 14
    01:52:26.740                : en:Chapter 15



    Geschützter Bereich - Bedanke dich beim Poster, um den Bereich sehen zu können
    Hier erfährst Du wie Du Dich bedanken kannst oder werde jetzt Premium Mitglied ab einer Spende von 5€ und erhalte sofortigen Zugriff auf den Downloadbereich!

  2. 20 Benutzer sagen Danke:

    aisenmond (17. February 2016),Bullet91 (4. August 2016),dave_christoph (11. April 2016),FIRST--LAW--FANTASY (24. July 2016),Frag0042 (15. August 2016),freakwatcher (23. February 2016),janik2009 (25. February 2016),midnighter (27. March 2016),nemo (4. March 2016),Neyzu (19. March 2016),PatMorita (19. July 2016),Pazu (3. November 2016),Physignatily (24. August 2016),prinzvegeta (1. June 2016),Tzi (14. February 2016),UndeadBan (9. July 2016),volker027 (3. October 2016),zeldax (31. March 2016),zoe#449 (7. April 2016),Zumay (6. September 2016)

Lesezeichen

Berechtigungen

  • Neue Themen erstellen: Nein
  • Themen beantworten: Nein
  • Anhänge hochladen: Nein
  • Beiträge bearbeiten: Nein
  •  

1 2 3 4 5 6 7 8 9 10 11 12 13 14 15 16 17 18 19 20 21 22 23 24 25 26 27 28 29 30 31 32 33 34 35 36 37 38 39 40 41 42 43 44 45 46 47 48 49 50 51 52 53 54 55 56 57 58 59 60 61 62 63 64 65 66 67 68 69 70 71 72 73 74 75 76 77 78 79 80 81 82 83 84 85 86 87 88 89 90 91 92 93 94 95 96 97 98 99 100 101 102 103 104 105 106 107 108 109 110 111 112 113 114 115 116 117 118 119 120 121 122 123 124 125 126 127 128 129 130 131 132 133 134 135 136 137 138 139 140 141 142 143 144 145 146 147 148 149 150 151 152 153 154 155 156 157 158