Ergebnis 1 bis 3 von 3

Thema: Vexille [GerDub][DVDRip]

Dieser Thread wurde noch nicht bewertet. Bewerte ihn doch, wenn er dir gefällt!
  1. #1
    Erfahrener Otaku Avatar von ohlong
    Registriert seit
    Sep 2013
    Ort
    Im Herzen Deutschlands
    Beiträge
    151
    Punkte
    5.807
    Errungenschaften:
    TomodachisTagger Profi5000 ErfahrungspunkteHikikomori

    Vexille [GerDub][DVDRip]



    Vexille
    Vexille: 2077 Nihon Sakoku
    ベクシル 2077日本鎖国
    Vexille: 2077 Japan National Isolation





    Kurzbeschreibung
    Im Jahre 2067 entscheidet sich Japan aus den Vereinten Nationen auszutreten. Durch geschlossene und stark bewachte Grenzen sowie einem magnetischen Schutzschild, der das Land selbst für Satelliten uneinsehbar macht, isoliert sich Japan vollständig vom Rest der Welt. 2077 erhält die NATO einen Bericht über eine neue Superwaffe der Japaner und deren Plan, damit die Welt zu erobern. Man entsendet die Spezialeinheit SWORD in das Landesinnere, doch deren Infiltrierung endet in einer Katastrophe. Nur Vexille, die Kommandantin des Teams, überlebt den Versuch und findet sich in Tokio wieder, dessen Bevölkerung im Gegensatz zur restlichen Welt im absoluten Überfluss zu leben scheint. Als Vexille von einem Trupp Rebellen aufgenommen wird, erfährt sie aber, dass dieser Eindruck trügerisch ist...

    Sprache: Deutsch
    Untertitel: Deutsch (Forced/Hardsub)
    Genre: Action, Sci-Fi, CG-Anime, Cyberpunk,
    Roboter & Androiden, Schusswaffen
    Source: DVD
    Format: avi
    Video-Codec: Xvid
    Resolution: 640x352
    Größe: 699MB
    Releaser: CRiTiCAL
    Hoster: Share-Online, Uploaded


    Technische Informationen
    Spoiler
    Code:
    Format                                   : AVI
    Format/Info                              : Audio Video Interleave
    File size                                : 700 MiB
    Duration                                 : 1h 45mn
    Overall bit rate mode                    : Variable
    Overall bit rate                         : 930 Kbps
    Writing application                      : Nandub v1.0rc2
    Writing library                          : Nandub build 1853/release
    
    Video
    ID                                       : 0
    Format                                   : MPEG-4 Visual
    Format profile                           : Advanced [email protected]
    Format settings, BVOP                    : 2
    Format settings, QPel                    : No
    Format settings, GMC                     : No warppoints
    Format settings, Matrix                  : Default (H.263)
    Codec ID                                 : XVID
    Codec ID/Hint                            : XviD
    Duration                                 : 1h 45mn
    Bit rate                                 : 770 Kbps
    Width                                    : 640 pixels
    Height                                   : 352 pixels
    Display aspect ratio                     : 16:9
    Frame rate                               : 25.000 fps
    Color space                              : YUV
    Chroma subsampling                       : 4:2:0
    Bit depth                                : 8 bits
    Scan type                                : Progressive
    Compression mode                         : Lossy
    Bits/(Pixel*Frame)                       : 0.137
    Stream size                              : 579 MiB (83%)
    Writing library                          : XviD 1.2.0.dev47 (UTC 2006-11-01)
    
    Audio
    ID                                       : 1
    Format                                   : MPEG Audio
    Format version                           : Version 1
    Format profile                           : Layer 3
    Mode                                     : Joint stereo
    Mode extension                           : MS Stereo
    Codec ID                                 : 55
    Codec ID/Hint                            : MP3
    Duration                                 : 1h 45mn
    Bit rate mode                            : Variable
    Bit rate                                 : 147 Kbps
    Minimum bit rate                         : 32.0 Kbps
    Channel(s)                               : 2 channels
    Sampling rate                            : 48.0 KHz
    Compression mode                         : Lossy
    Stream size                              : 111 MiB (16%)
    Alignment                                : Aligned on interleaves
    Interleave, duration                     : 24 ms (0.60 video frame)
    Interleave, preload duration             : 119 ms
    Writing library                          : LAME3.98b
    Encoding settings                        : -m j -V 4 -q 0 -lowpass 17.5 --vbr-new -b 32



    Password
    [email protected]

    Geschützter Bereich - Bedanke dich beim Poster, um den Bereich sehen zu können
    Hier erfährst Du wie Du Dich bedanken kannst oder werde jetzt Premium Mitglied ab einer Spende von 5€ und erhalte sofortigen Zugriff auf den Downloadbereich!

    Geändert von ohlong (12. January 2016 um 16:23 Uhr)

  2. 27 Benutzer sagen Danke:

    Aizen-Sama (14. November 2016),Akio (27. January 2016),Attacino (10. October 2013),boemb80_inactive (27. April 2014),cooliero (24. August 2015),Dark1504 (9. August 2015),dreambird1973 (22. November 2013),freakwatcher (23. September 2015),Gatti1983 (12. March 2015),Golff22 (19. December 2013),Grom (15. April 2016),Katagashi (24. April 2015),Kitefist (11. January 2015),kybant (15. March 2016),LordMecha (17. May 2016),midnighter (2. February 2015),Miles360 (2. January 2016),Nyarlathothep (22. May 2014),paulito.1 (23. September 2013),Raidøn (30. December 2014),sebigbos (23. July 2016),Tai1988 (2. August 2015),Traxolator (28. December 2014),Vaana- (21. September 2013),VatosLocos (14. September 2015),WegFleXXer (3. May 2014),Zaisen (2. April 2014)

  3. #2
    Erfahrener Otaku Avatar von ohlong
    Registriert seit
    Sep 2013
    Ort
    Im Herzen Deutschlands
    Beiträge
    151
    Punkte
    5.807
    Errungenschaften:
    TomodachisTagger Profi5000 ErfahrungspunkteHikikomori

    AW: Vexille [GerDub][DVDRip]

    Reup auf Share-Online & Uploaded

  4. #3
    Erfahrener Otaku Avatar von ohlong
    Registriert seit
    Sep 2013
    Ort
    Im Herzen Deutschlands
    Beiträge
    151
    Punkte
    5.807
    Errungenschaften:
    TomodachisTagger Profi5000 ErfahrungspunkteHikikomori

    AW: Vexille [GerDub][DVDRip]

    Reup auf Share-Online & Uploaded

Stichworte

Lesezeichen

Berechtigungen

  • Neue Themen erstellen: Nein
  • Themen beantworten: Nein
  • Anhänge hochladen: Nein
  • Beiträge bearbeiten: Nein
  •  

1 2 3 4 5 6 7 8 9 10 11 12 13 14 15 16 17 18 19 20 21 22 23 24 25 26 27 28 29 30 31 32 33 34 35 36 37 38 39 40 41 42 43 44 45 46 47 48 49 50 51 52 53 54 55 56 57 58 59 60 61 62 63 64 65 66 67 68 69 70 71 72 73 74 75 76 77 78 79 80 81 82 83 84 85 86 87 88 89 90 91 92 93 94 95 96 97 98 99 100 101 102 103 104 105 106 107 108 109 110 111 112 113 114 115 116 117 118 119 120 121 122 123 124 125 126 127 128 129 130 131 132 133 134 135 136 137 138 139 140 141 142 143 144 145 146 147 148 149 150 151 152 153 154 155 156 157 158