Ergebnis 1 bis 1 von 1

Thema: Voices of a Distant Star [Ger-Jap-Dub][AC3][Ger-Sub][720p][DVDRip]-SantaKlaus

Dieser Thread wurde durchschnittlich mit 5 Sternen bewertet, wobei 1 Stern die schlechteste und 5 Sterne die beste Bewertung ist. Es haben insgesamt 1 Mitglieder eine Bewertung abgegeben.

  1. #1
    Kleiner Experte Avatar von SantaKlaus
    Registriert seit
    Feb 2014
    Beiträge
    103
    Punkte
    5.867
    Errungenschaften:
    Hikikomori5000 Erfahrungspunkte

    Voices of a Distant Star [Ger-Jap-Dub][AC3][Ger-Sub][720p][DVDRip]-SantaKlaus

    Voices of a Distant Star
    Hoshi no Koe
    ほしのこえ






    Kurzbeschreibung:
    Auf dem Mars wurden die Überreste einer fremden Zivilisation gefunden. Die NASA-Expedition, die dorthin entsendet wurde, wurde beim "First Contact" komplett vernichtet. Den Menschen gelingt es dennoch, sich das Wissen der Tarsianer anzueignen und ihre Technik macht einen Quantensprung - die interstellare Raumfahrt wird endlich möglich.

    Viele Jahre später gehen die beiden Hauptpersonen, die fünfzehnjährige Mikako und der gleichaltrige Noboru, zur selben Schule. Mikako wird von der Raumflotte ausgewählt, eine Kampfmaschine zu steuern und geht mit auf die interstellare Suche nach der Herkunft der Tarsianer. Die Liebe der beiden beschränkt sich fortan auf den Austausch von Mails, die mit der Geschwindigkeit des Lichts den Weltraum durchqueren. Die Such-Flotte entfernt sich jedoch immer weiter von der Erde und der Austausch der Mails dauert immer länger - ihre Liebe droht in Raum und Zeit zu versinken ...


    Format: 4:3
    Auflösung: 720p (960x720) [Cervoz Release]
    Source: Cervoz Release & DVD (DE)
    Codec: AVC x264
    Datei: .mkv
    Hoster: Share-Online
    Ton:
    Deutsch Dolby Digital 2.0
    Japanisch Dolby Digital 2.0
    Untertitel:
    Deutsch forced VobSub
    Deutsch full VobSub

    Dateiliste
    Spoiler
    Code:
    Voices of a Distant Star (2003)/Voices of a Distant Star (2003).mkv
    Voices of a Distant Star (2003)/Interviews/Interview mit Makoto Shinkai.mkv
    Voices of a Distant Star (2003)/Scenes/She And Her Cat (Bonusfilm).mkv


    Datei Info
    Spoiler
    Code:
    General
    Unique ID                                : 174145439887410942601995568193061405427 (0x8303311598590AD4A88A83B5CD9E42F3)
    Complete name                            : Voices of a Distant Star (2003)\Voices of a Distant Star (2003).mkv
    Format                                   : Matroska
    Format version                           : Version 4 / Version 2
    File size                                : 907 MiB
    Duration                                 : 24mn 22s
    Overall bit rate                         : 5 204 Kbps
    Encoded date                             : UTC 2015-04-27 23:27:16
    Writing application                      : mkvmerge v7.7.0 ('Six Voices') 64bit built on Feb 28 2015 23:39:33
    Writing library                          : libebml v1.3.1 + libmatroska v1.4.2
    Attachements                             : HelveticaNeueLTCom-Hv.ttf / HelveticaNeueLTCom-HvIt.ttf
    DURATION                                 : 00:24:20.288000000
    NUMBER_OF_FRAMES                         : 45634
    NUMBER_OF_BYTES                          : 35046912
    _STATISTICS_WRITING_APP                  : mkvmerge v7.7.0 ('Six Voices') 64bit built on Feb 28 2015 23:39:33
    _STATISTICS_WRITING_DATE_UTC             : 2015-04-27 23:27:16
    _STATISTICS_TAGS                         : BPS DURATION NUMBER_OF_FRAMES NUMBER_OF_BYTES
    
    Video
    ID                                       : 1
    Format                                   : AVC
    Format/Info                              : Advanced Video Codec
    Format profile                           : High [email protected]
    Format settings, CABAC                   : Yes
    Format settings, ReFrames                : 9 frames
    Codec ID                                 : V_MPEG4/ISO/AVC
    Duration                                 : 24mn 22s
    Bit rate                                 : 4 716 Kbps
    Width                                    : 960 pixels
    Height                                   : 720 pixels
    Display aspect ratio                     : 4:3
    Frame rate mode                          : Constant
    Frame rate                               : 14.985 fps
    Color space                              : YUV
    Chroma subsampling                       : 4:2:0
    Bit depth                                : 10 bits
    Scan type                                : Progressive
    Bits/(Pixel*Frame)                       : 0.455
    Stream size                              : 822 MiB (91%)
    Writing library                          : x264 core 120 r2164+656 2ff844c
    Encoding settings                        : cabac=1 / ref=9 / deblock=1:0:0 / analyse=0x3:0x113 / me=umh / subme=11 / psy=1 / fade_compensate=0.00 / psy_rd=1.00:0.15 / mixed_ref=1 / me_range=32 / chroma_me=1 / trellis=2 / 8x8dct=1 / cqm=0 / deadzone=21,11 / fast_pskip=0 / chroma_qp_offset=-3 / threads=12 / sliced_threads=0 / nr=0 / decimate=1 / interlaced=0 / bluray_compat=0 / constrained_intra=0 / fgo=0 / bframes=16 / b_pyramid=2 / b_adapt=2 / b_bias=0 / direct=3 / weightb=1 / open_gop=0 / weightp=2 / keyint=150 / keyint_min=15 / scenecut=40 / intra_refresh=0 / rc_lookahead=60 / rc=crf / mbtree=0 / crf=17.0 / qcomp=0.60 / qpmin=0 / qpmax=81 / qpstep=4 / vbv_maxrate=50000 / vbv_bufsize=62500 / crf_max=0.0 / nal_hrd=none / ip_ratio=1.40 / pb_ratio=1.30 / aq=3:0.80
    Language                                 : Japanese
    Default                                  : Yes
    Forced                                   : No
    Color range                              : Limited
    Color primaries                          : BT.709
    Transfer characteristics                 : BT.709
    Matrix coefficients                      : BT.709
    
    Audio #1
    ID                                       : 2
    Format                                   : AC-3
    Format/Info                              : Audio Coding 3
    Mode extension                           : CM (complete main)
    Format settings, Endianness              : Big
    Codec ID                                 : A_AC3
    Duration                                 : 24mn 22s
    Bit rate mode                            : Constant
    Bit rate                                 : 192 Kbps
    Channel(s)                               : 2 channels
    Channel positions                        : Front: L R
    Sampling rate                            : 48.0 KHz
    Bit depth                                : 16 bits
    Compression mode                         : Lossy
    Delay relative to video                  : 10ms
    Stream size                              : 33.5 MiB (4%)
    Language                                 : German
    Default                                  : Yes
    Forced                                   : No
    
    Audio #2
    ID                                       : 3
    Format                                   : AC-3
    Format/Info                              : Audio Coding 3
    Mode extension                           : CM (complete main)
    Format settings, Endianness              : Big
    Codec ID                                 : A_AC3
    Duration                                 : 24mn 22s
    Bit rate mode                            : Constant
    Bit rate                                 : 192 Kbps
    Channel(s)                               : 2 channels
    Channel positions                        : Front: L R
    Sampling rate                            : 48.0 KHz
    Bit depth                                : 16 bits
    Compression mode                         : Lossy
    Delay relative to video                  : 10ms
    Stream size                              : 33.5 MiB (4%)
    Language                                 : Japanese
    Default                                  : No
    Forced                                   : No
    
    Text #1
    ID                                       : 4
    Format                                   : VobSub
    Muxing mode                              : zlib
    Codec ID                                 : S_VOBSUB
    Codec ID/Info                            : Picture based subtitle format used on DVDs
    Language                                 : German
    Default                                  : Yes
    Forced                                   : Yes
    
    Text #2
    ID                                       : 5
    Format                                   : VobSub
    Muxing mode                              : zlib
    Codec ID                                 : S_VOBSUB
    Codec ID/Info                            : Picture based subtitle format used on DVDs
    Language                                 : German
    Default                                  : No
    Forced                                   : No




    Geschützter Bereich - Bedanke dich beim Poster, um den Bereich sehen zu können
    Hier erfährst Du wie Du Dich bedanken kannst oder werde jetzt Premium Mitglied ab einer Spende von 5€ und erhalte sofortigen Zugriff auf den Downloadbereich!
    Geändert von SantaKlaus (28. April 2015 um 12:26 Uhr)

  2. 48 Benutzer sagen Danke:

    Aikanary (10. May 2015),Alaric (3. July 2015),Aluaran (29. April 2015),anime-fan (21. August 2015),aquarius (28. April 2015),bayerle92 (26. June 2015),bokor90 (14. January 2016),chackl_inactive (27. July 2015),dimachenkov (7. May 2015),freakwatcher (29. September 2015),Freeman1599 (31. July 2015),garcia (25. July 2015),Gatti1983 (19. July 2016),Geisterhaendler (23. November 2015),Ghostraven (29. October 2015),herrwefer (13. September 2015),hundekuchen (12. March 2016),hunter4320 (14. June 2015),InFaerno (3. August 2015),Jinnay (30. April 2015),kenschi (8. May 2015),kenshin057 (29. January 2016),Lelle (6. October 2015),Leviathan42 (11. July 2015),Ley0304 (30. September 2015),LowT (12. September 2015),macis2013 (28. April 2015),MasterTroll (1. April 2016),Merkartor (13. October 2016),midnighter (28. April 2015),nickssystem (21. July 2015),Poocky (16. December 2015),qooosy (28. April 2015),Ronae (28. April 2015),Roy_Coleman (2. May 2015),Ruff (30. April 2015),Shana:3 (8. November 2015),Spittfaia (29. June 2015),Spotix (24. October 2015),Tai1988 (1. August 2015),Tenma90 (8. October 2015),Terraner (6. July 2016),TingelN (4. August 2015),Tycos (30. April 2015),VatosLocos (20. August 2015),YozoraShiku (28. April 2015),Yukova (14. May 2015),zuloo (23. June 2015)

Lesezeichen

Berechtigungen

  • Neue Themen erstellen: Nein
  • Themen beantworten: Nein
  • Anhänge hochladen: Nein
  • Beiträge bearbeiten: Nein
  •  

1 2 3 4 5 6 7 8 9 10 11 12 13 14 15 16 17 18 19 20 21 22 23 24 25 26 27 28 29 30 31 32 33 34 35 36 37 38 39 40 41 42 43 44 45 46 47 48 49 50 51 52 53 54 55 56 57 58 59 60 61 62 63 64 65 66 67 68 69 70 71 72 73 74 75 76 77 78 79 80 81 82 83 84 85 86 87 88 89 90 91 92 93 94 95 96 97 98 99 100 101 102 103 104 105 106 107 108 109 110 111 112 113 114 115 116 117 118 119 120 121 122 123 124 125 126 127 128 129 130 131 132 133 134 135 136 137 138 139 140 141 142 143 144 145 146 147 148 149 150 151 152 153 154 155 156 157 158