Ergebnis 1 bis 1 von 1

Thema: Welcome to the Space Show (2010) + Extras [Ger-Jap-Eng-Dub][FLAC][TrueHD][Ger-Eng-Jap-Sub][1080p][BluRay][Remux]-SantaKlaus

Dieser Thread wurde noch nicht bewertet. Bewerte ihn doch, wenn er dir gefällt!
  1. #1
    Kleiner Experte Avatar von SantaKlaus
    Registriert seit
    Feb 2014
    Beiträge
    103
    Punkte
    5.867
    Errungenschaften:
    Hikikomori5000 Erfahrungspunkte

    Welcome to the Space Show (2010) + Extras [Ger-Jap-Eng-Dub][FLAC][TrueHD][Ger-Eng-Jap-Sub][1080p][BluRay][Remux]-SantaKlaus

    Welcome to the Space Show
    Uchuu Show e Youkoso
    宇宙ショーへようこそ






    Kurzbeschreibung:
    Die Geschichte beginnt in einem kleinen Dorf in den Bergen, wo fünf Grundschüler leben. Sie verbringen ein ganz alltägliches Leben, doch diese Idylle wird am ersten Tag des Sommercamps jäh gestört, als sie das Leben eines Hundes retten. Ziemlich schnell klärt sich jedoch, dass dieser gar kein Hund, sondern ein Alien mit dem Namen Pochi ist.

    Pochi kam auf die Erde, um Räuber zu verfolgen, welche hier eine geheimnisvolle Pflanze namens Zughan stehlen wollen. Der Alien wurde schwer verletzt und konnte nur dank der schnellen Hilfe der Kinder überleben. Zum Dank erfüllt er nun den Kindern einen Wunsch: Eine Reise zum Mond!


    Format: 16:9
    Auflösung: 1080p
    Source: Blu-ray
    Codec: AVC
    Hoster: Share-Online
    Ton:
    Deutsch FLAC 5.1 (AC3 von dt DVD lossless slowdown)
    Japanisch TrueHD 5.1 (von jp BD)
    Japanisch FLAC 2.0 (PCM von jp BD)
    Englisch DTS 5.1 (Danke @ [Links sind nur für registrierte und aktivierte Nutzer sichtbar. Klicke hier um dich zu registrieren.])
    Japanisch AC3 2.0 (Commentary 1 von jp BD)
    Japanisch AC3 2.0 (Commentary 2 von jp BD)
    Japanisch AC3 2.0 (Commentary 3 von jp BD)

    Dateiliste
    Spoiler
    Code:
    Welcome to the Space Show (2010)/Welcome to the Space Show (2010).mkv
    Welcome to the Space Show (2010)/Scenes/BD Menu.mkv
    Welcome to the Space Show (2010)/Scenes/Soundtrack.mkv


    MediaInfo
    Spoiler
    Code:
    General
    Unique ID                   : 215090257706494321729327337209235375713 (0xA1D0E07660868DF5A546A4CBAEA20661)
    Complete name               : Welcome to the Space Show (2010).mkv
    Format                      : Matroska
    Format version              : Version 4 / Version 2
    File size                   : 41.7 GiB
    Duration                    : 2h 16mn
    Overall bit rate mode       : Variable
    Overall bit rate            : 43.9 Mbps
    Movie name                  : Uchuu Show e Youkoso | Welcome to the Space Show | Willkommen zur Space Show [1080p][JapGerDub][EngGerSub]
    Encoded date                : UTC 2016-03-02 12:14:01
    Writing application         : mkvmerge v8.9.0 ('Father Daughter') 64bit
    Writing library             : libebml v1.3.3 + libmatroska v1.4.4
    Attachments                 : Aller.ttf / DFGKS5.TTC / DFKKSC7.TTC / mikachanPB.otf
    
    Video
    ID                          : 1
    Format                      : AVC
    Format/Info                 : Advanced Video Codec
    Format profile              : [email protected]
    Format settings, CABAC      : Yes
    Format settings, ReFrames   : 4 frames
    Codec ID                    : V_MPEG4/ISO/AVC
    Duration                    : 2h 16mn
    Bit rate mode               : Variable
    Bit rate                    : 34.9 Mbps
    Maximum bit rate            : 39.0 Mbps
    Width                       : 1 920 pixels
    Height                      : 1 080 pixels
    Display aspect ratio        : 16:9
    Frame rate mode             : Constant
    Frame rate                  : 23.976 (24000/1001) fps
    Color space                 : YUV
    Chroma subsampling          : 4:2:0
    Bit depth                   : 8 bits
    Scan type                   : Progressive
    Bits/(Pixel*Frame)          : 0.702
    Stream size                 : 33.1 GiB (79%)
    Language                    : Japanese
    Default                     : No
    Forced                      : No
    Color range                 : Limited
    Color primaries             : BT.709
    Transfer characteristics    : BT.709
    Matrix coefficients         : BT.709
    
    Audio #1
    ID                          : 2
    Format                      : FLAC
    Format/Info                 : Free Lossless Audio Codec
    Codec ID                    : A_FLAC
    Duration                    : 2h 16mn
    Bit rate mode               : Variable
    Bit rate                    : 3 138 Kbps
    Channel(s)                  : 6 channels
    Channel positions           : Front: L C R, Side: L R, LFE
    Sampling rate               : 48.0 KHz
    Frame rate                  : 11.719 fps (4096 spf)
    Bit depth                   : 24 bits
    Stream size                 : 2.98 GiB (7%)
    Writing library             : libFLAC 1.2.1 (UTC 2007-09-17)
    Language                    : German
    Default                     : Yes
    Forced                      : No
    
    Audio #2
    ID                          : 3
    Format                      : TrueHD
    Codec ID                    : A_TRUEHD
    Duration                    : 2h 16mn
    Bit rate mode               : Variable
    Bit rate                    : 2 348 Kbps
    Maximum bit rate            : 4 023 Kbps
    Channel(s)                  : 6 channels
    Channel positions           : Front: L C R, Side: L R, LFE
    Sampling rate               : 48.0 KHz
    Frame rate                  : 1 200.000 fps (40 spf)
    Compression mode            : Lossless
    Stream size                 : 2.23 GiB (5%)
    Language                    : Japanese
    Default                     : No
    Forced                      : No
    
    Audio #3
    ID                          : 4
    Format                      : FLAC
    Format/Info                 : Free Lossless Audio Codec
    Codec ID                    : A_FLAC
    Duration                    : 2h 16mn
    Bit rate mode               : Variable
    Bit rate                    : 1 343 Kbps
    Channel(s)                  : 2 channels
    Channel positions           : Front: L R
    Sampling rate               : 48.0 KHz
    Frame rate                  : 10.417 fps (4608 spf)
    Bit depth                   : 24 bits
    Stream size                 : 1.28 GiB (3%)
    Writing library             : MakeMKV v1.9.9 win(x64-release)
    Language                    : Japanese
    Default                     : No
    Forced                      : No
    
    Audio #4
    ID                          : 5
    Format                      : DTS
    Format/Info                 : Digital Theater Systems
    Mode                        : 16
    Format settings, Endianness : Big
    Codec ID                    : A_DTS
    Duration                    : 2h 16mn
    Bit rate mode               : Constant
    Bit rate                    : 1 509 Kbps
    Channel(s)                  : 6 channels
    Channel positions           : Front: L C R, Side: L R, LFE
    Sampling rate               : 48.0 KHz
    Frame rate                  : 93.750 fps (512 spf)
    Bit depth                   : 24 bits
    Compression mode            : Lossy
    Stream size                 : 1.43 GiB (3%)
    Language                    : English
    Default                     : No
    Forced                      : No
    
    Audio #5
    ID                          : 6
    Format                      : AC-3
    Format/Info                 : Audio Coding 3
    Mode extension              : CM (complete main)
    Format settings, Endianness : Big
    Codec ID                    : A_AC3
    Duration                    : 2h 16mn
    Bit rate mode               : Constant
    Bit rate                    : 192 Kbps
    Channel(s)                  : 2 channels
    Channel positions           : Front: L R
    Sampling rate               : 48.0 KHz
    Frame rate                  : 31.250 fps (1536 spf)
    Compression mode            : Lossy
    Stream size                 : 187 MiB (0%)
    Title                       : Commentary 1
    Language                    : Japanese
    Default                     : No
    Forced                      : No
    
    Audio #6
    ID                          : 7
    Format                      : AC-3
    Format/Info                 : Audio Coding 3
    Mode extension              : CM (complete main)
    Format settings, Endianness : Big
    Codec ID                    : A_AC3
    Duration                    : 2h 16mn
    Bit rate mode               : Constant
    Bit rate                    : 192 Kbps
    Channel(s)                  : 2 channels
    Channel positions           : Front: L R
    Sampling rate               : 48.0 KHz
    Frame rate                  : 31.250 fps (1536 spf)
    Compression mode            : Lossy
    Stream size                 : 187 MiB (0%)
    Title                       : Commentary 2
    Language                    : Japanese
    Default                     : No
    Forced                      : No
    
    Audio #7
    ID                          : 8
    Format                      : AC-3
    Format/Info                 : Audio Coding 3
    Mode extension              : CM (complete main)
    Format settings, Endianness : Big
    Codec ID                    : A_AC3
    Duration                    : 2h 16mn
    Bit rate mode               : Constant
    Bit rate                    : 192 Kbps
    Channel(s)                  : 2 channels
    Channel positions           : Front: L R
    Sampling rate               : 48.0 KHz
    Frame rate                  : 31.250 fps (1536 spf)
    Compression mode            : Lossy
    Stream size                 : 187 MiB (0%)
    Title                       : Commentary 3
    Language                    : Japanese
    Default                     : No
    Forced                      : No
    
    Text #1
    ID                          : 9
    Format                      : ASS
    Codec ID                    : S_TEXT/ASS
    Codec ID/Info               : Advanced Sub Station Alpha
    Duration                    : 2h 3mn
    Bit rate                    : 3 bps
    Count of elements           : 33
    Compression mode            : Lossless
    Stream size                 : 3.50 KiB (0%)
    Language                    : German
    Default                     : Yes
    Forced                      : No
    
    Text #2
    ID                          : 10
    Format                      : ASS
    Codec ID                    : S_TEXT/ASS
    Codec ID/Info               : Advanced Sub Station Alpha
    Duration                    : 2h 7mn
    Bit rate                    : 89 bps
    Count of elements           : 1394
    Compression mode            : Lossless
    Stream size                 : 84.0 KiB (0%)
    Language                    : German
    Default                     : No
    Forced                      : No
    
    Text #3
    ID                          : 11
    Format                      : ASS
    Codec ID                    : S_TEXT/ASS
    Codec ID/Info               : Advanced Sub Station Alpha
    Duration                    : 2h 7mn
    Bit rate                    : 95 bps
    Count of elements           : 1719
    Compression mode            : Lossless
    Stream size                 : 88.9 KiB (0%)
    Language                    : English
    Default                     : No
    Forced                      : No
    
    Text #4
    ID                          : 12
    Format                      : PGS
    Muxing mode                 : zlib
    Codec ID                    : S_HDMV/PGS
    Codec ID/Info               : Picture based subtitle format used on BDs/HD-DVDs
    Duration                    : 2h 7mn
    Bit rate                    : 8 240 bps
    Count of elements           : 3216
    Stream size                 : 7.50 MiB (0%)
    Language                    : English
    Default                     : No
    Forced                      : No
    
    Text #5
    ID                          : 13
    Format                      : PGS
    Muxing mode                 : zlib
    Codec ID                    : S_HDMV/PGS
    Codec ID/Info               : Picture based subtitle format used on BDs/HD-DVDs
    Duration                    : 2h 7mn
    Bit rate                    : 11.0 Kbps
    Count of elements           : 3270
    Stream size                 : 10.1 MiB (0%)
    Language                    : Japanese
    Default                     : No
    Forced                      : No
    
    Menu
    00:00:00.000                : en:Chapter 01
    00:10:30.671                : en:Chapter 02
    00:19:21.160                : en:Chapter 03
    00:23:48.427                : en:Chapter 04
    00:36:07.540                : en:Chapter 05
    00:41:09.508                : en:Chapter 06
    00:53:20.363                : en:Chapter 07
    00:58:12.739                : en:Chapter 08
    01:06:13.302                : en:Chapter 09
    01:10:49.286                : en:Chapter 10
    01:16:07.813                : en:Chapter 11
    01:29:10.345                : en:Chapter 12
    01:36:37.917                : en:Chapter 13
    01:47:35.615                : en:Chapter 14
    01:55:01.019                : en:Chapter 15
    02:07:06.660                : en:Chapter 16
    02:10:32.825                : en:Chapter 17



    Geschützter Bereich - Bedanke dich beim Poster, um den Bereich sehen zu können
    Hier erfährst Du wie Du Dich bedanken kannst oder werde jetzt Premium Mitglied ab einer Spende von 5€ und erhalte sofortigen Zugriff auf den Downloadbereich!

  2. 22 Benutzer sagen Danke:

    0xDEADC0DE (14. August 2016),1Ranger (12. June 2016),Baschti1989 (6. August 2016),Bullet91 (2. August 2016),chopper23 (1. May 2016),Conopas (7. March 2016),foiderbua (1. May 2016),fullmetal1995 (13. March 2016),holyhooker111 (24. March 2016),Hououin Kyouma (30. October 2016),Jinnay (7. March 2016),Kaan- (30. April 2016),manuel4193 (6. March 2016),midnighter (27. March 2016),Mr.Shit (1. May 2016),PingFake (8. July 2016),prinzvegeta (31. May 2016),setugen no ao (1. May 2016),Spotix (17. October 2016),Terraner (6. July 2016),tigerhai (7. March 2016),Ulfhednir (9. March 2016)

Lesezeichen

Berechtigungen

  • Neue Themen erstellen: Nein
  • Themen beantworten: Nein
  • Anhänge hochladen: Nein
  • Beiträge bearbeiten: Nein
  •  

1 2 3 4 5 6 7 8 9 10 11 12 13 14 15 16 17 18 19 20 21 22 23 24 25 26 27 28 29 30 31 32 33 34 35 36 37 38 39 40 41 42 43 44 45 46 47 48 49 50 51 52 53 54 55 56 57 58 59 60 61 62 63 64 65 66 67 68 69 70 71 72 73 74 75 76 77 78 79 80 81 82 83 84 85 86 87 88 89 90 91 92 93 94 95 96 97 98 99 100 101 102 103 104 105 106 107 108 109 110 111 112 113 114 115 116 117 118 119 120 121 122 123 124 125 126 127 128 129 130 131 132 133 134 135 136 137 138 139 140 141 142 143 144 145 146 147 148 149 150 151 152 153 154 155 156 157 158