Ergebnis 1 bis 1 von 1

Thema: Saint Beast: Kouin Jojishi Tenshi Tan [Jap-Dub][Eng-Sub][480p][WebRip] - AnikiHD

Dieser Thread wurde noch nicht bewertet. Bewerte ihn doch, wenn er dir gefällt!
  1. #1
    Kami-sama Avatar von galudo
    Registriert seit
    Mar 2015
    Beiträge
    1.371
    Punkte
    26.002
    Errungenschaften:
    TomodachisTagger ProfiHyperaktivSenpaiGang Leader

    Saint Beast: Kouin Jojishi Tenshi Tan [Jap-Dub][Eng-Sub][480p][WebRip] - AnikiHD

    Saint Beast: Kouin Jojishi Tenshi Tan
    Saint Beast ~Angel Chronicles~
    Saint Beast ~光陰叙事詩天使譚~



    Kurzbeschreibung
    Göttervater Zeus bestimmt sechs Engel zu seinen Sendboten, die auf die Erde geschickt werden, um Katastrophen zu verhindern, die von Dämonen verursacht werden. Bald stellt sich aber heraus, dass möglicherweise etwas ganz anderes hinter diesen Ereignissen steckt. Zur selben Zeit gerät, von den Meisten unbemerkt, der Frieden im Himmel selbst langsam ins Wanken...
    Format: MP4
    Sprache: Japanisch
    Untertitel: Englisch
    Genre: Action, Fantasy
    Größe: ~ 450 MB pro Folge | Gesamtgröße: 0,90 GB
    Dauer: ~ 24 Minuten
    Jahr: 2007
    Video: 480p
    Source: WebRip
    Subgroup / Releasegroup: Viewster / AnikiHD

    Hoster: Share-Online | Uploaded
    Passwort: siehe unten


    Datei-Info
    Spoiler
    Code:
    General
    Complete name                  : Saint Beast Kouin Jojishi Tenshi Tan - 01 - The Beginning.mp4
    Format                         : MPEG-4
    Format profile                 : Base Media
    Codec ID                       : isom
    File size                      : 454 MiB
    Duration                       : 25mn 15s
    Overall bit rate mode          : Variable
    Overall bit rate               : 2 512 Kbps
    Encoded date                   : UTC 2016-03-05 20:54:02
    Tagged date                    : UTC 2016-03-05 20:54:02
    
    Video
    ID                             : 1
    Format                         : AVC
    Format/Info                    : Advanced Video Codec
    Format profile                 : [email protected]
    Format settings, CABAC         : Yes
    Format settings, ReFrames      : 3 frames
    Format settings, GOP           : M=1, N=90
    Codec ID                       : avc1
    Codec ID/Info                  : Advanced Video Coding
    Duration                       : 25mn 15s
    Bit rate                       : 2 414 Kbps
    Maximum bit rate               : 6 497 Kbps
    Width                          : 1 280 pixels
    Height                         : 720 pixels
    Display aspect ratio           : 16:9
    Frame rate mode                : Constant
    Frame rate                     : 29.970 fps
    Color space                    : YUV
    Chroma subsampling             : 4:2:0
    Bit depth                      : 8 bits
    Scan type                      : Progressive
    Bits/(Pixel*Frame)             : 0.087
    Stream size                    : 436 MiB (96%)
    Title                          : Ì
    Encoded date                   : UTC 2016-03-05 20:54:02
    Tagged date                    : UTC 2016-03-05 20:54:06
    Color range                    : Limited
    Color primaries                : BT.709
    Transfer characteristics       : BT.709
    Matrix coefficients            : BT.709
    
    Audio
    ID                             : 2
    Format                         : AAC
    Format/Info                    : Advanced Audio Codec
    Format profile                 : LC
    Codec ID                       : 40
    Duration                       : 25mn 15s
    Bit rate mode                  : Variable
    Bit rate                       : 96.0 Kbps
    Maximum bit rate               : 104 Kbps
    Channel(s)                     : 2 channels
    Channel positions              : Front: L R
    Sampling rate                  : 48.0 KHz
    Compression mode               : Lossy
    Stream size                    : 17.3 MiB (4%)
    Title                          : Ì
    Encoded date                   : UTC 2016-03-05 20:54:05
    Tagged date                    : UTC 2016-03-05 20:54:06


    Folgen 02 / 13 online
    Folgen einzeln ladbar



    || Download & Passwort ||
    Geschützter Bereich - Bedanke dich beim Poster, um den Bereich sehen zu können
    Hier erfährst Du wie Du Dich bedanken kannst oder werde jetzt Premium Mitglied ab einer Spende von 5€ und erhalte sofortigen Zugriff auf den Downloadbereich!

    Hier zur Staffel 1:
    [Links sind nur für registrierte und aktivierte Nutzer sichtbar. Klicke hier um dich zu registrieren.]

    Geändert von galudo (21. April 2016 um 17:02 Uhr)
    SUPPORT UND REUP ANFRAGEN NUR >> [Links sind nur für registrierte und aktivierte Nutzer sichtbar. Klicke hier um dich zu registrieren.] <<
    Bitte IMMER den Thread-Link mitschicken.

  2. 1 Benutzer sagt Danke:

    Natsuki (6. March 2016)

Stichworte

Lesezeichen

Berechtigungen

  • Neue Themen erstellen: Nein
  • Themen beantworten: Nein
  • Anhänge hochladen: Nein
  • Beiträge bearbeiten: Nein
  •  

1 2 3 4 5 6 7 8 9 10 11 12 13 14 15 16 17 18 19 20 21 22 23 24 25 26 27 28 29 30 31 32 33 34 35 36 37 38 39 40 41 42 43 44 45 46 47 48 49 50 51 52 53 54 55 56 57 58 59 60 61 62 63 64 65 66 67 68 69 70 71 72 73 74 75 76 77 78 79 80 81 82 83 84 85 86 87 88 89 90 91 92 93 94 95 96 97 98 99 100 101 102 103 104 105 106 107 108 109 110 111 112 113 114 115 116 117 118 119 120 121 122 123 124 125 126 127 128 129 130 131 132 133 134 135 136 137 138 139 140 141 142 143 144 145 146 147 148 149 150 151 152 153 154 155 156 157 158