Ergebnis 1 bis 1 von 1

Thema: Shingeki no Kyojin: Chimi Kyara Gekijou [Jap-Dub][Eng-Sub][720p]

Dieser Thread wurde noch nicht bewertet. Bewerte ihn doch, wenn er dir gefällt!
  1. #1
    Kami-sama Avatar von galudo
    Registriert seit
    Mar 2015
    Beiträge
    1.369
    Punkte
    25.903
    Errungenschaften:
    TomodachisTagger ProfiHyperaktivSenpaiGang Leader

    Shingeki no Kyojin: Chimi Kyara Gekijou [Jap-Dub][Eng-Sub][720p]

    Shingeki no Kyojin: Chimi Kyara Gekijou - Tondeke! Kunren Heidan
    Shingeki no Kyojin Specials | Attack on Titan Specials




    Kurzbeschreibung
    E01-"Day 01 / Day 02"
    Eren has trouble getting to school on time, before he and Armin find themselves in the nurse's office.
    E02-"Day 03 / Day 04"
    Eren tries to make a strong impression before his instructor, whilst Jean becomes jealous of Eren's closeness with Mikasa.
    E03-"Day 05 / Day 06 / Day 07"
    Sasha is accused of a crime she didn't commit, whilst Armin finds a rather dubious book. Later, Eren and Mikasa try to learn about the Titan's weakness.
    E04-"Day 08 / Day 09 / Day 10"
    Eren accidentally stumbles into the classroom as the girls were taking off their clothes, Mikasa competes against Ymir for Eren's pudding, Christa and Ymir discuss who they should spend the day with.
    E05-"Day 11 / Day 12 / Day 13"
    Eren attempts to improve his body by following Reiner's every move, Bertholdt tries to improve his confidence, Mikasa and Annie compete to see who can inflict more pain on Eren.
    E06-"Day 14 / Day 15 / Day 16"
    Conny and Sasha attempt to prank Shadis, Eren decides to shave his hair, Armin tutors Eren, Sasha, and Connie when they failed their test.
    E07-"Day 17 / Day 18 / Day 19"
    Eren struggles to balance himself on the Three Dimensional Maneuver Gear, Jean gets lost during training, Marco sneaks into the Girl's Dormitory to return a lost pink bag.
    E08-"Day 20 / Day 21 / Day 22"
    Franz and Hannah try to help Eren reconcile with Mikasa after an argument, Mikasa tries to act on her feelings with Eren, Hanji tries to communicate with a Titan.
    E09-"Day 23 / Day 24 / Day 25"
    Erwin tries to change his appearance to appeal to cadets, Levi analyzes himself from another's point of view, The graduation ceremony of the 104th Trainee Corps takes place.
    Format: MP4
    Language: Japan
    Subs: English
    Size: ~ 450 MB
    Length: ~ 10 Minutes
    Year: 2013/14
    Video: 720p
    Source: BD-Rip
    Sub-/Releasegroup: Hatsuyuki-Kaitou

    Hoster: Share-Online
    Passwort: siehe unten


    Datei-Info
    Spoiler
    Code:
    General
    Format                         : MPEG-4
    Format profile                 : Base Media
    Codec ID                       : isom
    File size                      : 30.5 MiB
    Duration                       : 6mn 44s
    Overall bit rate mode          : Variable
    Overall bit rate               : 632 Kbps
    
    Video
    ID                             : 1
    Format                         : AVC
    Format/Info                    : Advanced Video Codec
    Format profile                 : [email protected]
    Format settings, CABAC         : Yes
    Format settings, ReFrames      : 10 frames
    Codec ID                       : avc1
    Codec ID/Info                  : Advanced Video Coding
    Duration                       : 6mn 44s
    Bit rate                       : 308 Kbps
    Maximum bit rate               : 2 344 Kbps
    Width                          : 1 280 pixels
    Height                         : 720 pixels
    Display aspect ratio           : 16:9
    Frame rate mode                : Constant
    Frame rate                     : 23.976 fps
    Color space                    : YUV
    Chroma subsampling             : 4:2:0
    Bit depth                      : 8 bits
    Scan type                      : Progressive
    Bits/(Pixel*Frame)             : 0.014
    Stream size                    : 14.9 MiB (49%)
    Writing library                : x264 core 133 r2334 a3ac64b
    
    Audio
    ID                             : 2
    Format                         : AAC
    Format/Info                    : Advanced Audio Codec
    Format profile                 : LC
    Codec ID                       : 40
    Duration                       : 6mn 44s
    Bit rate mode                  : Variable
    Bit rate                       : 320 Kbps
    Maximum bit rate               : 328 Kbps
    Channel(s)                     : 2 channels
    Channel positions              : Front: L R
    Sampling rate                  : 48.0 KHz
    Compression mode               : Lossy
    Stream size                    : 15.4 MiB (51%)
    Language                       : Japanese


    Episodes 9/9 seperate downloadable


    || Download & Passwort ||
    Geschützter Bereich - Bedanke dich beim Poster, um den Bereich sehen zu können
    Hier erfährst Du wie Du Dich bedanken kannst oder werde jetzt Premium Mitglied ab einer Spende von 5€ und erhalte sofortigen Zugriff auf den Downloadbereich!
    Geändert von galudo (21. April 2016 um 18:30 Uhr)
    SUPPORT UND REUP ANFRAGEN NUR >> [Links sind nur für registrierte und aktivierte Nutzer sichtbar. Klicke hier um dich zu registrieren.] <<
    Bitte IMMER den Thread-Link mitschicken.

  2. 9 Benutzer sagen Danke:

    Asura (25. April 2015),Deva (11. October 2015),Dreieckhard (20. April 2015),FIRST--LAW--FANTASY (27. October 2015),HoOoLy_ShiiiT (17. April 2015),Lysinchen (19. February 2016),MutationACE (21. June 2016),Norandas (21. August 2015),sebmori (26. July 2015)

Stichworte

Lesezeichen

Berechtigungen

  • Neue Themen erstellen: Nein
  • Themen beantworten: Nein
  • Anhänge hochladen: Nein
  • Beiträge bearbeiten: Nein
  •  

1 2 3 4 5 6 7 8 9 10 11 12 13 14 15 16 17 18 19 20 21 22 23 24 25 26 27 28 29 30 31 32 33 34 35 36 37 38 39 40 41 42 43 44 45 46 47 48 49 50 51 52 53 54 55 56 57 58 59 60 61 62 63 64 65 66 67 68 69 70 71 72 73 74 75 76 77 78 79 80 81 82 83 84 85 86 87 88 89 90 91 92 93 94 95 96 97 98 99 100 101 102 103 104 105 106 107 108 109 110 111 112 113 114 115 116 117 118 119 120 121 122 123 124 125 126 127 128 129 130 131 132 133 134 135 136 137 138 139 140 141 142 143 144 145 146 147 148 149 150 151 152 153 154 155 156 157 158