Ergebnis 1 bis 1 von 1

Thema: Shingeki no Kyojin [Eng-Jap-Dub][Eng-Sub][1080p][BluRay] - S3qu3l

Dieser Thread wurde noch nicht bewertet. Bewerte ihn doch, wenn er dir gefällt!
  1. #1
    Avatar von so1k
    Registriert seit
    Aug 2014
    Beiträge
    316
    Punkte
    4.164
    Errungenschaften:
    1000 ErfahrungspunkteTomodachisHikikomori

    Shingeki no Kyojin [Eng-Jap-Dub][Eng-Sub][1080p][BluRay] - S3qu3l


    Shingeki no Kyojin
    進撃の巨人
    Attack on Titan





    Kurzbeschreibung:
    Zitat Zitat von AniSearch.com
    Vor mehreren hundert Jahren wurde die Menschheit nahezu von Titanen ausgerottet. Sie sind riesengroß, verfügen über geringe*Intelligenz und scheinen Menschen nur des Vergnügens wegen zu fressen. Ein kleiner Prozentsatz an Menschen überlebte, indem sie sich in einer Stadt verschanzten, deren gewaltige Mauern größer sind als selbst die größten Titanen.

    Die Stadt hat seit über 100 Jahren keinen Titanen mehr gesehen. Der junge Teenager Eren und seine Ziehschwester Mikasa müssen mit ansehen, wie ein "Supertitan" wie aus dem Nichts vor der Stadt erscheint und die Mauern zerstört. Während seine kleineren Artgenossen durch die Löcher in die Stadt einfallen, müssen die Kinder den Horror miterleben, wie ihre Mutter bei lebendigem Leibe gefressen wird. Eren schwört, dass er jeden einzelnen Titanen auf der Welt abschlachten und Rache für die ganze Menschheit nehmen wird.

    //

    Centuries ago, mankind was slaughtered to near extinction by monstrous humanoid creatures called titans, forcing humans to hide in fear behind enormous concentric walls. What makes these giants truly terrifying is that their taste for human flesh is not born out of hunger but what appears to be out of pleasure. To ensure their survival, the remnants of humanity began living within defensive barriers, resulting in one hundred years without a single titan encounter. However, that fragile calm is soon shattered when a colossal titan manages to breach the supposedly impregnable outer wall, reigniting the fight for survival against the man-eating abominations.

    After witnessing a horrific personal loss at the hands of the invading creatures, Eren Yeager dedicates his life to their eradication by enlisting into the Survey Corps, an elite military unit that combats the merciless humanoids outside the protection of the walls. Based on Hajime Isayama's award-winning manga, Shingeki no Kyojin follows Eren, along with his adopted sister Mikasa Ackerman and his childhood friend Armin Arlert, as they join the brutal war against the titans and race to discover a way of defeating them before the last walls are breached.

    [Written by MAL Rewrite]

    Spieldauer: 24min
    Genre: Actiondrama
    Nebengenres: Action, Drama, Fantasy, Horror, Mystery, Psychodrama, Übermäßige Gewaltdarstellung
    Jahr: 2013
    Sprache: Englisch, Japanisch
    Untertitel: Englisch
    Größe pro Folge: ~493 MiB
    Episodenanzahl: 25/25
    Format: MKV
    Auflösung: 1080p (16:9)
    Videocodec: x264 (AVC)
    Audiocodec: AC-3
    Releasegruppe: S3qu3l
    Hoster: Uploaded, Share-Online


    MediaInfo

    Code:
    
    Format                                   : Matroska
    Format version                           : Version 4 / Version 2
    File size                                : 493 MiB
    Duration                                 : 24mn 9s
    Overall bit rate                         : 2 856 Kbps
    Encoded date                             : UTC 2014-10-03 02:02:57
    Writing application                      : mkvmerge v7.2.0 ('On Every Street') 64bit built on Sep 13 2014 15:52:10
    Writing library                          : libebml v1.3.0 + libmatroska v1.4.1
    TITLE                                    : Attack on Titan P2 D1
    DURATION                                 : 00:24:05.900000000
    NUMBER_OF_FRAMES                         : 1642
    NUMBER_OF_BYTES                          : 212508
    _STATISTICS_WRITING_APP                  : mkvmerge v7.2.0 ('On Every Street') 64bit built on Sep 13 2014 15:52:10
    _STATISTICS_WRITING_DATE_UTC             : 2014-10-03 02:02:57
    _STATISTICS_TAGS                         : BPS DURATION NUMBER_OF_FRAMES NUMBER_OF_BYTES
    
    Video
    ID                                       : 1
    Format                                   : AVC
    Format/Info                              : Advanced Video Codec
    Format profile                           : [email protected]
    Format settings, CABAC                   : Yes
    Format settings, ReFrames                : 4 frames
    Codec ID                                 : V_MPEG4/ISO/AVC
    Duration                                 : 24mn 9s
    Bit rate                                 : 2 000 Kbps
    Width                                    : 1 920 pixels
    Height                                   : 1 080 pixels
    Display aspect ratio                     : 16:9
    Frame rate mode                          : Constant
    Frame rate                               : 23.976 fps
    Color space                              : YUV
    Chroma subsampling                       : 4:2:0
    Bit depth                                : 8 bits
    Scan type                                : Progressive
    Bits/(Pixel*Frame)                       : 0.040
    Stream size                              : 340 MiB (69%)
    Writing library                          : x264 core 130 r2273 b3065e6
    Encoding settings                        : cabac=1 / ref=5 / deblock=1:0:0 / analyse=0x3:0x113 / me=hex / subme=7 / psy=1 / psy_rd=1.00:0.00 / mixed_ref=1 / me_range=16 / chroma_me=1 / trellis=1 / 8x8dct=1 / cqm=0 / deadzone=21,11 / fast_pskip=1 / chroma_qp_offset=-2 / threads=6 / lookahead_threads=1 / sliced_threads=0 / nr=0 / decimate=1 / interlaced=0 / bluray_compat=0 / constrained_intra=0 / bframes=5 / b_pyramid=1 / b_adapt=2 / b_bias=0 / direct=3 / weightb=1 / open_gop=0 / weightp=2 / keyint=240 / keyint_min=24 / scenecut=40 / intra_refresh=0 / rc_lookahead=40 / rc=2pass / mbtree=1 / bitrate=2000 / ratetol=1.0 / qcomp=0.60 / qpmin=0 / qpmax=69 / qpstep=4 / cplxblur=20.0 / qblur=0.5 / ip_ratio=1.40 / aq=1:1.00
    Language                                 : English
    Default                                  : Yes
    Forced                                   : No
    Color range                              : Limited
    Color primaries                          : BT.709
    Transfer characteristics                 : BT.709
    Matrix coefficients                      : BT.709
    
    Audio #1
    ID                                       : 2
    Format                                   : AC-3
    Format/Info                              : Audio Coding 3
    Mode extension                           : CM (complete main)
    Format settings, Endianness              : Big
    Codec ID                                 : A_AC3
    Duration                                 : 24mn 9s
    Bit rate mode                            : Constant
    Bit rate                                 : 448 Kbps
    Channel(s)                               : 6 channels
    Channel positions                        : Front: L C R, Side: L R, LFE
    Sampling rate                            : 48.0 KHz
    Compression mode                         : Lossy
    Stream size                              : 77.4 MiB (16%)
    Language                                 : English
    Default                                  : Yes
    Forced                                   : No
    
    Audio #2
    ID                                       : 3
    Format                                   : AC-3
    Format/Info                              : Audio Coding 3
    Mode extension                           : CM (complete main)
    Format settings, Endianness              : Big
    Codec ID                                 : A_AC3
    Duration                                 : 24mn 9s
    Bit rate mode                            : Constant
    Bit rate                                 : 192 Kbps
    Channel(s)                               : 2 channels
    Channel positions                        : Front: L R
    Sampling rate                            : 48.0 KHz
    Compression mode                         : Lossy
    Stream size                              : 33.2 MiB (7%)
    Language                                 : Japanese
    Default                                  : No
    Forced                                   : No
    
    Audio #3
    ID                                       : 4
    Format                                   : AC-3
    Format/Info                              : Audio Coding 3
    Mode extension                           : CM (complete main)
    Format settings, Endianness              : Big
    Codec ID                                 : A_AC3
    Duration                                 : 24mn 9s
    Bit rate mode                            : Constant
    Bit rate                                 : 192 Kbps
    Channel(s)                               : 2 channels
    Channel positions                        : Front: L R
    Sampling rate                            : 48.0 KHz
    Compression mode                         : Lossy
    Stream size                              : 33.2 MiB (7%)
    Language                                 : English
    Default                                  : No
    Forced                                   : No
    
    Text #1
    ID                                       : 5
    Format                                   : PGS
    Muxing mode                              : zlib
    Codec ID                                 : S_HDMV/PGS
    Codec ID/Info                            : Picture based subtitle format used on BDs/HD-DVDs
    Language                                 : English
    Default                                  : No
    Forced                                   : No
    
    Text #2
    ID                                       : 6
    Format                                   : PGS
    Muxing mode                              : zlib
    Codec ID                                 : S_HDMV/PGS
    Codec ID/Info                            : Picture based subtitle format used on BDs/HD-DVDs
    Language                                 : English
    Default                                  : No
    Forced                                   : No
    
    Text #3
    ID                                       : 7
    Format                                   : ASS
    Codec ID                                 : S_TEXT/ASS
    Codec ID/Info                            : Advanced Sub Station Alpha
    Compression mode                         : Lossless
    Title                                    : [Coalgirls]
    Language                                 : English
    Default                                  : Yes
    Forced                                   : No
    
    Menu
    00:00:00.000                             : en:Chapter 1
    00:00:51.051                             : en:Chapter 2
    00:02:21.015                             : en:Chapter 3
    00:22:23.175                             : en:Chapter 5
    00:23:53.056                             : en:Chapter 6
    
    





    Geschützter Bereich - Bedanke dich beim Poster, um den Bereich sehen zu können
    Hier erfährst Du wie Du Dich bedanken kannst oder werde jetzt Premium Mitglied ab einer Spende von 5€ und erhalte sofortigen Zugriff auf den Downloadbereich!


    [Links sind nur für registrierte und aktivierte Nutzer sichtbar. Klicke hier um dich zu registrieren.]
    Geändert von so1k (4. June 2016 um 22:08 Uhr) Grund: Mirror: Uploaded

  2. 11 Benutzer sagen Danke:

    berdens (19. July 2016),DarkPunisher (7. June 2016),Kouta-chii (31. August 2016),Lupino (3. June 2016),Miriweth (20. July 2016),moflippa (28. October 2016),mrfreeman (14. July 2016),Obiwan Shinobi (11. October 2016),thedarkone777 (11. September 2016),Type-0 (24. July 2016),zoe#449 (11. September 2016)

Lesezeichen

Berechtigungen

  • Neue Themen erstellen: Nein
  • Themen beantworten: Nein
  • Anhänge hochladen: Nein
  • Beiträge bearbeiten: Nein
  •  

1 2 3 4 5 6 7 8 9 10 11 12 13 14 15 16 17 18 19 20 21 22 23 24 25 26 27 28 29 30 31 32 33 34 35 36 37 38 39 40 41 42 43 44 45 46 47 48 49 50 51 52 53 54 55 56 57 58 59 60 61 62 63 64 65 66 67 68 69 70 71 72 73 74 75 76 77 78 79 80 81 82 83 84 85 86 87 88 89 90 91 92 93 94 95 96 97 98 99 100 101 102 103 104 105 106 107 108 109 110 111 112 113 114 115 116 117 118 119 120 121 122 123 124 125 126 127 128 129 130 131 132 133 134 135 136 137 138 139 140 141 142 143 144 145 146 147 148 149 150 151 152 153 154 155 156 157 158