Ergebnis 1 bis 1 von 1

Thema: Boruto: Naruto the Movie [Jap-Dub][Eng-Sub][720p][BluRay][10-Bit] - div.

Dieser Thread wurde noch nicht bewertet. Bewerte ihn doch, wenn er dir gefällt!
  1. #1
    Avatar von so1k
    Registriert seit
    Aug 2014
    Beiträge
    316
    Punkte
    4.229
    Errungenschaften:
    1000 ErfahrungspunkteTomodachisHikikomori

    Boruto: Naruto the Movie [Jap-Dub][Eng-Sub][720p][BluRay][10-Bit] - div.


    Boruto: Naruto the Movie
    Boruto: Naruto - Der Film





    Kurzbeschreibung:
    Zitat Zitat von AniSearch.com
    Boruto ist der Sohn des siebten Hokage, Naruto, der seinen Vater zurückweist. In Wirklichkeit will er seinen Vater übertreffen, der als Held angesehen wird. Er trifft dessen alten Freund Sasuke und möchte sein Schüler werden.

    [Source: japaniac.de]

    //

    Boruto Uzumaki has inherited the mischievous spirit and endless energy from his famous father, the 7th Hokage, Naruto. As he enters his Chunin exams, a harsh decision made by Naruto angers Boruto, causing their personalities to clash, awakening a fierce ambition within the young shinobi to surpass his father with his own skills and techniques. But in order to do so, he will need the help of none other than Uchiha Sasuke, Naruto's lifelong rival and childhood friend. Although Boruto has convinced himself that he has what it takes to surpass the 7th Hokage, he soon discovers that the road ahead is not nearly as simple as the young shinobi has envisioned.

    Boruto: Naruto the Movie opens the doors for a new generation of shinobi to put their abilities to the test, as they face a mysterious enemy and hope to restore peace to Konoha, and the hardships within their own families. The 7th Hokage certainly has an impressive battle history behind him, but on this occasion, he will need the strong teamwork of old friends and new talents in order to win.

    [Source: MAL]

    Spieldauer: 96min
    Genre: Action
    Nebengenres: Comedy, Martial Arts, Shounen, Super Power
    Jahr: 2015
    Sprache: Japanisch
    Untertitel: Englisch
    Größe pro Folge: ~918 MiB
    Episodenanzahl: 1/1
    Format: MKV
    Auflösung: 720p (16:9)
    Videocodec: x264 (AVC)
    Audiocodec: AC-3
    Releasegruppe: USS / Anime Land / mnhaxor
    Hoster: Uploaded, Share-Online

    INFO: Koreanische BD (Bild) mit japanischen Dubs (Sound) vom CamRip. Es ist ein Mix aus dem koreanischen und japanischen Dub, wobei die Konversationen alle auf japanisch sind.

    MediaInfo

    Code:
    
    Format                                   : Matroska
    Format version                           : Version 4 / Version 2
    File size                                : 918 MiB
    Duration                                 : 1h 35mn
    Overall bit rate                         : 1 345 Kbps
    Encoded date                             : UTC 2016-05-16 11:10:27
    Writing application                      : mkvmerge v9.1.0 ('Little Earthquakes') 64bit
    Writing library                          : libebml v1.3.3 + libmatroska v1.4.4
    DURATION                                 : 01:32:51.260000000
    NUMBER_OF_FRAMES                         : 1088
    NUMBER_OF_BYTES                          : 80465
    _STATISTICS_WRITING_APP                  : mkvmerge v9.1.0 ('Little Earthquakes') 64bit
    _STATISTICS_WRITING_DATE_UTC             : 2016-05-16 11:10:27
    _STATISTICS_TAGS                         : BPS DURATION NUMBER_OF_FRAMES NUMBER_OF_BYTES
    
    Video
    ID                                       : 2
    Format                                   : AVC
    Format/Info                              : Advanced Video Codec
    Format profile                           : High [email protected]
    Format settings, CABAC                   : Yes
    Format settings, ReFrames                : 9 frames
    Codec ID                                 : V_MPEG4/ISO/AVC
    Duration                                 : 1h 35mn
    Bit rate                                 : 1 150 Kbps
    Width                                    : 1 280 pixels
    Height                                   : 720 pixels
    Display aspect ratio                     : 16:9
    Frame rate mode                          : Constant
    Frame rate                               : 29.970 fps
    Color space                              : YUV
    Chroma subsampling                       : 4:2:0
    Bit depth                                : 10 bits
    Scan type                                : Progressive
    Bits/(Pixel*Frame)                       : 0.042
    Stream size                              : 768 MiB (84%)
    Writing library                          : x264 core 148 r2638 7599210
    Encoding settings                        : cabac=1 / ref=9 / deblock=1:1:1 / analyse=0x3:0x133 / me=umh / subme=10 / psy=1 / psy_rd=0.40:0.00 / mixed_ref=1 / me_range=24 / chroma_me=1 / trellis=2 / 8x8dct=1 / cqm=0 / deadzone=21,11 / fast_pskip=1 / chroma_qp_offset=-2 / threads=12 / lookahead_threads=3 / sliced_threads=0 / nr=0 / decimate=1 / interlaced=0 / bluray_compat=0 / constrained_intra=0 / bframes=10 / b_pyramid=2 / b_adapt=2 / b_bias=0 / direct=3 / weightb=1 / open_gop=0 / weightp=2 / keyint=300 / keyint_min=29 / scenecut=40 / intra_refresh=0 / rc_lookahead=60 / rc=2pass / mbtree=1 / bitrate=1150 / ratetol=1.0 / qcomp=0.60 / qpmin=10 / qpmax=51 / qpstep=4 / cplxblur=20.0 / qblur=0.5 / vbv_maxrate=62500 / vbv_bufsize=78125 / nal_hrd=none / filler=0 / ip_ratio=1.40 / aq=1:0.60
    Default                                  : Yes
    Forced                                   : No
    
    Audio
    ID                                       : 1
    Format                                   : AC-3
    Format/Info                              : Audio Coding 3
    Mode extension                           : CM (complete main)
    Format settings, Endianness              : Big
    Codec ID                                 : A_AC3
    Duration                                 : 1h 35mn
    Bit rate mode                            : Constant
    Bit rate                                 : 192 Kbps
    Channel(s)                               : 2 channels
    Channel positions                        : Front: L R
    Sampling rate                            : 48.0 KHz
    Compression mode                         : Lossy
    Stream size                              : 131 MiB (14%)
    Default                                  : Yes
    Forced                                   : No
    
    Text #1
    ID                                       : 3
    Format                                   : SSA
    Codec ID                                 : S_TEXT/SSA
    Codec ID/Info                            : Sub Station Alpha
    Compression mode                         : Lossless
    Default                                  : Yes
    Forced                                   : No
    
    Text #2
    ID                                       : 4
    Format                                   : ASS
    Codec ID                                 : S_TEXT/ASS
    Codec ID/Info                            : Advanced Sub Station Alpha
    Compression mode                         : Lossless
    Default                                  : No
    Forced                                   : No
    
    Text #3
    ID                                       : 5
    Format                                   : ASS
    Codec ID                                 : S_TEXT/ASS
    Codec ID/Info                            : Advanced Sub Station Alpha
    Compression mode                         : Lossless
    Default                                  : No
    Forced                                   : No
    
    Text #4
    ID                                       : 6
    Format                                   : ASS
    Codec ID                                 : S_TEXT/ASS
    Codec ID/Info                            : Advanced Sub Station Alpha
    Compression mode                         : Lossless
    Default                                  : No
    Forced                                   : No
    
    





    Geschützter Bereich - Bedanke dich beim Poster, um den Bereich sehen zu können
    Hier erfährst Du wie Du Dich bedanken kannst oder werde jetzt Premium Mitglied ab einer Spende von 5€ und erhalte sofortigen Zugriff auf den Downloadbereich!

    [Links sind nur für registrierte und aktivierte Nutzer sichtbar. Klicke hier um dich zu registrieren.]
    Geändert von so1k (15. June 2016 um 19:08 Uhr) Grund: Mirror: uploaded.to

  2. 10 Benutzer sagen Danke:

    gunnar1 (14. July 2016),herrwefer (15. June 2016),mar3el (14. July 2016),morpheus243 (24. July 2016),Niggoh23 (24. June 2016),nived (4. December 2016),Puckano (18. October 2016),SONNYxq (22. June 2016),TesserLP (5. October 2016),Tidus18 (25. June 2016)

Lesezeichen

Berechtigungen

  • Neue Themen erstellen: Nein
  • Themen beantworten: Nein
  • Anhänge hochladen: Nein
  • Beiträge bearbeiten: Nein
  •  

1 2 3 4 5 6 7 8 9 10 11 12 13 14 15 16 17 18 19 20 21 22 23 24 25 26 27 28 29 30 31 32 33 34 35 36 37 38 39 40 41 42 43 44 45 46 47 48 49 50 51 52 53 54 55 56 57 58 59 60 61 62 63 64 65 66 67 68 69 70 71 72 73 74 75 76 77 78 79 80 81 82 83 84 85 86 87 88 89 90 91 92 93 94 95 96 97 98 99 100 101 102 103 104 105 106 107 108 109 110 111 112 113 114 115 116 117 118 119 120 121 122 123 124 125 126 127 128 129 130 131 132 133 134 135 136 137 138 139 140 141 142 143 144 145 146 147 148 149 150 151 152 153 154 155 156 157 158