Ergebnis 1 bis 1 von 1

Thema: Kimi no Na wa. (Your Name.) [Jap-Dub][Eng-Sub][480p][DVDRip] - Nazo Subs

Dieser Thread wurde noch nicht bewertet. Bewerte ihn doch, wenn er dir gefällt!
  1. #1
    Soundtrackmensch Avatar von Kalchi
    Registriert seit
    Apr 2016
    Ort
    Österreich
    Beiträge
    241
    Punkte
    3.026
    Errungenschaften:
    HyperaktivGalerie Aussteller1000 ErfahrungspunkteTomodachisTagger Amateur

    Kimi no Na wa. (Your Name.) [Jap-Dub][Eng-Sub][480p][DVDRip] - Nazo Subs


    Kimi no Na wa.
    君の名は。
    Your Name.






    Kurzbeschreibung:
    Zitat Zitat von AniSearch.com
    Die Geschichte dreht sich um Mitsuha und Taki. Mitsuha lebt mit ihrer kleinen Schwester bei ihrer Großmutter in einer kleinen, ländlichen Stadt, die von Bergen umgeben ist. Sie ist ein sehr ehrliches Mädchen, aber sie findet weder Gefallen an den Bräuchen des Familienschreins, noch an dem Wahlkampf, an dem ihr Vater teilnimmt. Stattdessen*beklagt sie sich über die ländliche Lebensweise und sehnt sich nach einem Leben in Tokyo. Taki dagegen lebt in Tokyo, verbringt viel Zeit mit seinen Freunden und arbeitet nebenbei in einem italienischen Restaurant. Außerdem interessiert er sich sehr für Architektur und bildende Kunst. Eines Tages jedoch hat Mitsuha einen Traum, in dem sie sich als Junge wiederfindet. Taki hat genau denselben Traum, findet sich aber als Mädchen in einer Stadt in den Bergen wieder, wo er noch nie*zuvor*war. Was ist das Geheimnis ihrer Träume und ihrer persönlichen Erfahrungen?...mehr


    Spieldauer: 110min
    Genre: Drama
    Nebengenres: Alltagsleben, Drama, Komödie, Mystery, Romanze
    Jahr: 2016
    Sprache: Japanisch
    Untertitel: Englisch(Hard)
    Größe pro Folge: ~727 MiB
    Episodenanzahl: 1/1
    Format: MP4
    Auflösung: 480p (16:9)
    Videocodec: x264 (AVC)
    Audiocodec: AAC
    Releasegruppe: Nazo Subs
    Hoster: Uploaded


    MediaInfo
    Code:
    
    Format                                   : MPEG-4
    Format profile                           : Base Media / Version 2
    Codec ID                                 : mp42
    File size                                : 727 MiB
    Duration                                 : 1h 46mn
    Overall bit rate mode                    : Variable
    Overall bit rate                         : 950 Kbps
    Encoded date                             : UTC 2016-09-06 17:50:31
    Tagged date                              : UTC 2016-09-06 17:50:31
    
    Video
    ID                                       : 1
    Format                                   : AVC
    Format/Info                              : Advanced Video Codec
    Format profile                           : [email protected]
    Format settings, CABAC                   : Yes
    Format settings, ReFrames                : 3 frames
    Codec ID                                 : avc1
    Codec ID/Info                            : Advanced Video Coding
    Duration                                 : 1h 46mn
    Bit rate                                 : 802 Kbps
    Maximum bit rate                         : 5 468 Kbps
    Width                                    : 720 pixels
    Height                                   : 480 pixels
    Display aspect ratio                     : 16:9
    Original display aspect ratio            : 16:9
    Frame rate mode                          : Constant
    Frame rate                               : 24.000 fps
    Color space                              : YUV
    Chroma subsampling                       : 4:2:0
    Bit depth                                : 8 bits
    Scan type                                : Progressive
    Bits/(Pixel*Frame)                       : 0.097
    Stream size                              : 613 MiB (84%)
    Writing library                          : x264 core 148 r2699+6+41 29a38aa Yuuki [[email protected] X86_64][GCC 5.3.0]
    Encoding settings                        : cabac=1 / ref=3 / deblock=1:-1:-1 / analyse=0x1:0x111 / me=umh / subme=10 / psy=1 / fade_compensate=0.10 / psy_rd=0.40:0.00 / mixed_ref=1 / me_range=16 / chroma_me=1 / trellis=2 / 8x8dct=0 / cqm=0 / deadzone=21,11 / fast_pskip=1 / chroma_qp_offset=-2 / threads=15 / lookahead_threads=1 / sliced_threads=0 / nr=0 / decimate=0 / interlaced=0 / bluray_compat=0 / constrained_intra=0 / fgo=0 / bframes=3 / b_pyramid=0 / b_adapt=2 / b_bias=0 / direct=3 / weightb=1 / open_gop=0 / weightp=1 / keyint=250 / keyint_min=1 / scenecut=40 / intra_refresh=0 / rc_lookahead=40 / rc=crf / mbtree=1 / crf=21.0000 / qcomp=0.70 / qpmin=0:0:0 / qpmax=69:69:69 / qpstep=4 / vbv_maxrate=10000 / vbv_bufsize=10000 / crf_max=0.0 / nal_hrd=none / filler=0 / ip_ratio=1.40 / aq=1:0.70
    Encoded date                             : UTC 2016-09-06 17:50:31
    Tagged date                              : UTC 2016-09-06 17:50:31
    
    Audio
    ID                                       : 2
    Format                                   : AAC
    Format/Info                              : Advanced Audio Codec
    Format profile                           : LC
    Codec ID                                 : 40
    Duration                                 : 1h 46mn
    Bit rate mode                            : Variable
    Bit rate                                 : 144 Kbps
    Channel(s)                               : 2 channels
    Channel positions                        : Front: L R
    Sampling rate                            : 44.1 KHz
    Compression mode                         : Lossy
    Stream size                              : 111 MiB (15%)
    Writing library                          : Nero AAC codec 1.5.4.0
    Encoded date                             : UTC 2016-09-06 17:50:31
    Tagged date                              : UTC 2016-09-06 17:50:31
    
    




    Geschützter Bereich - Bedanke dich beim Poster, um den Bereich sehen zu können
    Hier erfährst Du wie Du Dich bedanken kannst oder werde jetzt Premium Mitglied ab einer Spende von 5€ und erhalte sofortigen Zugriff auf den Downloadbereich!

    [Links sind nur für registrierte und aktivierte Nutzer sichtbar. Klicke hier um dich zu registrieren.]

    Meine Animeliste: [Links sind nur für registrierte und aktivierte Nutzer sichtbar. Klicke hier um dich zu registrieren.] :D
    Mein [Links sind nur für registrierte und aktivierte Nutzer sichtbar. Klicke hier um dich zu registrieren.] (bald wieder aktiv :D)
    Re-Upload/Mirror Anfragen einfach per Pn (Mit Threadlink)
    „In every age, and every world, the strong sharpen their fangs while the weak polish their wits.“ ~ Sora (No Game no Life)

  2. 24 Benutzer sagen Danke:

    adinin (21. November 2016),Androkai (21. November 2016),ayoschilla (3. December 2016),basdi (28. October 2016),Cheez (26. October 2016),Denrage (22. October 2016),Diana (15. October 2016),DommiNanz (22. October 2016),EvaFan (22. November 2016),hanfii (27. November 2016),harry9x (26. November 2016),ianv (14. November 2016),kenshin057 (15. November 2016),ManunaM (8. November 2016),Memati53 (14. November 2016),merb (26. October 2016),Mikyo (15. November 2016),Pazu (2. November 2016),pltn (30. October 2016),Scruffy (26. November 2016),Shirayah (2. December 2016),stellar (17. October 2016),Tekk (12. October 2016),Tenma90 (17. October 2016)

Lesezeichen

Berechtigungen

  • Neue Themen erstellen: Nein
  • Themen beantworten: Nein
  • Anhänge hochladen: Nein
  • Beiträge bearbeiten: Nein
  •  

1 2 3 4 5 6 7 8 9 10 11 12 13 14 15 16 17 18 19 20 21 22 23 24 25 26 27 28 29 30 31 32 33 34 35 36 37 38 39 40 41 42 43 44 45 46 47 48 49 50 51 52 53 54 55 56 57 58 59 60 61 62 63 64 65 66 67 68 69 70 71 72 73 74 75 76 77 78 79 80 81 82 83 84 85 86 87 88 89 90 91 92 93 94 95 96 97 98 99 100 101 102 103 104 105 106 107 108 109 110 111 112 113 114 115 116 117 118 119 120 121 122 123 124 125 126 127 128 129 130 131 132 133 134 135 136 137 138 139 140 141 142 143 144 145 146 147 148 149 150 151 152 153 154 155 156 157 158